&title=Cherry pop
&artist=Deco*27
&first=0
&des=-
&lv_5=14
&des_5=-
&inote_5=
(192){4},,,,1,
1,1,1b-5[8:1],
{64}6b<1[8:1],C,,,,,,,,,,,,,,,{4}3,{8}2-8[8:1],6-4[16:1],2,6,
{4}3b>8[8:1],6,{8}7-1b[8:1],4p8[8:1],7,4,
{4}5b-1[8:1],3,{8}2-4[8:1],5,2,8,
6/5,2,3/4,7,4/6,1,5/3,8,
{4}6/3b>8[8:1],5,{8}7-1[8:1],3-5[16:1],7,3,
{4}6b<1[8:1],3,{8}2-8b[8:1],5-1[8:1],2,5,
{4}4bp8[8:1],6,{8}7-5[8:1],4,7,1,
3/4,7,6/5,2,5/3,8,4/6,1,
{4}3/5V71[4:1],4qq4[4:1],{2}4pp4[4:1],
{4}1-6[8:1],{8}2,1xpp4[8:3],,5,6,7,
{4}8-3[8:1],{8}4,4,{4}4-1[8:1],{8}5,5-8[8:1],
,3-6[8:1],,7-2[8:1],,4,{4}3,
6/4V28[4:1],5pp5[4:1],5qq5[4:1],{8}2,1,
{4}8pp3[8:3],{8}6,6,,7,6,5,
{4}3-8[8:1],{8}4,5,{4}6-3[8:1],{8}4x,4x-1[8:1],
,4x/5xv8[8:1],,5b/4b,,2,1-3[8:1],7,
1,6,5-7[8:1],3,5,2,2,4q8[8:1],
,2,{4}3h[4:1],{8}8,8,7,2,
6h[4:1],1,4h[4:1],8,5h[4:1],1,3h[4:1],7,
6,4,5/2,3,7/4,6,2/5-7[8:1],3,
5,3-1[8:1],5,3,6,4,5,4p8[8:1],
,7,{4}6h[4:1],{8}1,1,2,7,
3h[4:1],8,5h[4:1],1,4h[4:1],8,6h[4:1],2,
{16}3,8,3,8,4,5,4,5,1,6,1,6,4,5,4,5,
{4}2h[4:3],B3/E4,B6/E6,C,
7h[4:3],B6/E6,B3/E4,C,
6/2h[4:1],4,3/7h[4:1],5,
5/2,4/7,{8}5/2,3,4/7,6,
5/1,3,8/4,6,7/1,1/7,8/2,8/2,
{32}2bx,3,4,5,6,7,8,1,2bx,3,4,5,6,7,8,1,{2}2/Cf,
{8}8b/3b,{16}6,4,{8}5-7[8:1],2,5x/3v8[8:1],4,3x/6,5,
6/1,{16}3,5,{8}4-2[8:1],7,4x/6v1[8:1],5,3/6x,4,
3b-1[8:1],5,3,7x,8b-4[8:1],2,8-6[8:1],3x,
8-4[8:1],5,8/2-5[8:1],3,2bx/8-4[8:1],7,2/8bx,3,
1b/7b,{16}3,5,{8}4-2[8:1],7,4x/6v1[8:1],5,6x/3,4,
2b/8b,{16}6,4,{8}5-7[8:1],2,5x/3v8[8:1],4,6/3x,5,
6b-8[8:1],4,6,2x,1b-5[8:1],7,1-3[8:1],6x,
1b-5[8:1],4,1/7-4[8:1],6,7bx/1-5[8:1],2,7/1bx,6,
3b/8b,{16}6,5,{8}7,2V41-5[16:5],7x,8,7x,8,
6b,{16}2,1,{8}3,6V85-1[16:5],3x,4,3x,4,
2b-4[8:1],7,2,6,5-1[8:1],6,5,7,
8x-6[8:1],1x-3[16:1],8-4b[8:1],1-5b[8:1],8-6b[8:1],1,8,3,
1b/7b,{16}3,4,{8}2,6V85-1[16:5],3x,4,3x,4,
2b,{16}6,5,{8}7,2V41-5[16:5],7x,8,7x,8,
6b-8[8:1],3,6,3,2b-4b[8:1],7,2,6,
1x-3[8:1],8x-6[16:1],1-5b[8:1],8-4b[8:1],1x,8x,{32}1b,2x,3x,4x,8b,7x,6x,5x,
{4}Cfh[2:1],,,8b-4[8:1],
8/4,6-2[8:1]/2-6[8:1],{8},,7/3,7/3,
{2}8-4[8:1]/4-8[8:1],{8}5/1,5/1,7/3,7/3,
{2}3-7[8:1]/7-3[8:1],{8}2/6,2/6,8/4,8/4,
2-4[8:1],7-5[8:1],2,7,B2/B1,B8/B7,{32}B3,B4,,,B6,B5,,,E1,
C,{16}E5,,,{4}7b,{8}1-5[8:1],5-1[16:1],7,7,
{2}7-3[32:3]/3x-7[32:3],{8}1/5,5/1,3/7,3/7,
{2}8-4[32:3]/4-8[32:3],{8}6-2[12:1],2-6[8:1],4,4,
E4,E6,B2/B1,B8/B7,{32}1bx-5[8:1],2x,3x,4x,8bx-4[8:1],7x,6x,5x,{8}1bx,8bx,
{4}1xh[4:1],7b,{2}5/1bw5[8:1],
{4}2x-4[8:1],5,6-8[8:1],3,
4-2[8:1],5,{8}6,6v3[8:1],,2b/6v1[8:1],
,2b/6v3[8:1],,2b/6<1[4:1],,2,3,4,
{4}5-2[8:1],7-4-7[4:1],{8}2x,2x,,1>4[4:1],
,5,6,7V53[4:1],,1,{4}1,
2bh[4:1],8b,{8}5b,5b,,2b/4b,
,5b/7b,,6b/3b,,E6,E4,C,
2-5[8:1],5-2[8:1],2,7,7-5[8:1],3-1[8:1],7,3,
4-8[8:1],8-4[8:1],2,2,2-6[8:1],6-2[8:1],2,5x,
7<5[8:1],1,7,2>4[8:1],8,2,7-4[8:1],4x-8[8:1],
3,2,2-7[8:1],7x>4[4:1],5,5x,6x,6x,
7-4[8:1],4-7[8:1],7,2,2-4[8:1],6-8[8:1],2,6,
5-1[8:1],1-5[8:1],7,7,7-3[8:1],3-7[8:1],7,4x,
2>4[8:1],8,2,7<5[8:1],1,7,2v5[8:1],5x-2[8:1],
6,7,7-2[8:1],2-8-5[16:5],7,4x,3x,3x,
{4}2b>5[4:1],5<8[4:1],8>3[4:1],3-6[4:1],
6-1[4:1],1-4[4:1],4-7[4:1],7,
6b>3[4:1],3>8[4:1],8<5[4:1],5-2[4:1],
2-7[4:1],7-4[4:1],4-1[4:1],{8}2x,2x,
{12}3bx,4x,5x,1b/6x,7x,8x,4b/1x,2x,3x,4x/7bx,,,6bx/3b,
5x,4x,8b/3x,2x,1x,5b/8x,7x,6x,5x/2>6[4:1],,,{2}2bx/6x<2[4:1],
{16}8bx,7x,6x,5x,4x<8[4:1],3x,2x,1x,
{2}4bx/8bx>4[4:1],{16}7bx,6x,5x,4x,3x<7[4:1],2x,1x,8x,
{4}3bx/7bx>3[4:1],5x,{8}6b,5x/4x,2b/7x,3x/6x,
{16}1,8,1,8,1,8,1,8,1,8,{8}Cf,,2/6h[1:1],
{4},,,{16},,{32}2x,5x/3x,{16}4xh[16:1],
,,4x,4x,{8}4x,3/5,7/1,6/4,2/8,3/5,
1b/7b,{16}3,5,{8}4-2[8:1],7,4x/6v1[8:1],5,6x/3,4,
2/8,{16}6,4,{8}5-7[8:1],2,5x/3v8[8:1],4,6/3x,5,
6b-8[8:1],4,6,2x,1b-5[8:1],7,1-3[8:1],6x,
1-5[8:1],4,1/8-4[8:1],6,8bx/1-5[8:1],3,8/1bx,6,
8b/2b,{16}6,4,{8}5-7[8:1],2,5x/3v8[8:1],4,3x/6,5,
7b/1b,{16}3,5,{8}4-2[8:1],7,4x/6v1[8:1],5,3/6x,4,
3b-1[8:1],5,3,7x,8b-4[8:1],2,8-6[8:1],3x,
8b-4[8:1],5,8/1-5[8:1],3,1bx/8-4[8:1],6,1/8bx,3,
7b/1b,{16}3,4,{8}2,7V58-4[16:5],3b,2,3b,1,
3b,{16}7,8,{8}6,3V14-8[8:3],7b,5,7b,6,
7x-5[8:1],1-3[8:1],7,1,4-8[8:1],2,4,2,
1x-3[8:1],8x-6[16:1],1-5b[8:1],8-4b[8:1],1-3b[8:1],8,1,6b,
8b/2b,{16}6,5,{8}7,3V14-8b[16:5],7b,5,7b,5,
7b,{16}3,4,{8}2,7V58-4[16:5],3b,1,3b,1,
3b-1[8:1],6,3,6,7b-5b[8:1],4b-2[8:1],7b,4b,
8x-6[8:1],1x-3[16:1],8-4b[8:1],1-5b[8:1],8x,1x,{32}8b,7bx,6bx,5bx,1b,2bx,3bx,4bx,
{4}Ch[2:1],,,1b-5[8:1],
1,{8}3-7[8:1],7-3[8:1],3,5,5,7x/3x,
{2}1-5[8:1]/5-1[8:1],{8}4/8,4/8,2/6,2/6,
{2}6-2[8:1]/2-6[8:1],{8}7/3,7/3,1/5,1/5,
7-5[8:1],2-4[8:1],7,2,8b-6b[8:1],1b-3b[8:1],8b-4[8:1],1b,
{4}8x/Cf,2b/6x,{8}8-4[8:1],4-8[16:1],2,2,
{2}2-6[32:3]/6x-2[32:3],{8}8/4,2/6,8/4,6/2,
{2}1-5[32:3]/5-1[32:3],{8}3-7b[8:1],7-3[8:1],5,5,
E6/B6,E4/B3,{32}E8,E7,{16}E6,{32}E2,E3,{16}E4,{32}8bx-4b[8:1],7x,6x,5x,1bx-5b[8:1],2x,3x,4x,{8}8bx,1bx,
{32}8b,7x,{16}6xh[16:3],{32},,,,2b,3x,{16}4xh[16:3],,,{4}8bh[4:1],{32}3b,2,{16}1x-5b[16:1],{64},,,,,,,,6,
C,
E
