&title=∑
&artist=DJ Myosuke & Gram & t+pazolite
&first=0
&des=Sum(++CraZy)
&des_5=Sum(++CraZy)
&lv_5=14+
&inote_5=(222){1},
{4},,,,
{24}1b/8b,27,3/6,4-6v8-2b[8:11]/5,,,{4},,,
{1},
{1}5-8[4:6]/1v4[4:6],
{1},
{1}7>7[4:6]*>7[4:6],
{1}8>3[4:2],
{1}8-2-6-4[4:6]*-2-6-4[4:6]/4h[2:1],
{1}8-2[4:2],
{4}4-8[4:6],3,3,3,3,2,2,1,
{4}1-5[4:6],8,8,8,8,7,7,6,
{12}3,5,3,6,4,6,3,4,3,6,5,6,
{12}2,3,4,7,6,5,1,2,3,48,7,6,
{12}5/1x,2,3,4,5,6,7x/B5,8,1,2,3,4,
{12}5x/B1,6,7,8,1,2,3x/B7,4,5,6,7,8,
{1}1b<6-2-5>3[4:6]/5h[4:7],,
{4}2h[4:2],6,7,{8}8<5[4:3],1,{4}1,2,3,4,
{4}3h[4:2],5,6,{8}4>1[4:3],7,{4}8,7,6,5,
{4}7/8,7,6/5,{8}6V82[4:2],3,
{4}6,2V46[4:2],4,2,
{4}2,2,35,3,
{4}6h[4:1],4>1[4:1],1q5[4:1],5,
{4}7-5[8:1],5,2-4[8:1],4,
{4}7-5[8:1],4,2-4[8:1],5,
{4}7-5[8:1],8,1-3[8:1],8,
{4}7<4[4:1],4>1[4:1],1-5[4:1],4,
{8}2-4[8:1],2,6,,7-1[8:1],7,2,3,
{4}4-1[4:1],1-5[4:1],5-2[4:1],7,
{8}7v5[8:1],5,4,,3v1[8:1],1,8,,
{8}8h[4:2],1,1-3[8:1],1-7[8:1],1b-5[8:1],,,,
{4}7b-5[8:1],7-1[8:1]/4,7-3[8:1]/3,7/2,
{4}2b-8[8:1],2-4[8:1]/5,2-6[8:1]/6,2/7,
{4}8b-6[8:1],1/8-2[8:1],8-4[8:1]/5,8/4,
{4}2<4[8:5],E5f,E7f,E1f,
{8}7-5[8:1],5,7,4,3-1[8:1],,34,,
{8}8-2[8:1],2,8,3,4-6[8:1],,34,,
{16}1,2,35,,7,6,53,,{4}4q8[8:1]*v2[8:1],C,
{8}1-7[8:1],6,1-3[8:1],5,1w5[8:1],4,Cf,,
{4}2x-5[8:1]/6x,8-6[8:1],1-5[8:1],8-4[8:1],
{4}2-6[8:1],7-4[8:1],1-3[8:1],{16}5xb,6,7,,
{4}7x-4[8:1]/4x,2-6[8:1],8-4[8:1],1-6[8:1],
{4}7-3[8:1],1-4[8:1],{8}5bq1[8:1]*v3[8:1],5,5x,,
{4}2b-6[8:1],2/8-4[8:1],8/3-8[8:1],3/6-4[8:1],
{4}6/1-6[8:1],1/8-4[8:1],8w4[8:1]/4,8b,
{8}26,26,37,37,{16}4,8,4,8,{32}4,5,6,7,8,1,2,3,
{4}4q1[4:2]/5p8[4:2],,,,
{8}8<3[4:6],,,,3,,,2,
{8}2h[8:3],,,,1,,1,,
{8}1>6[4:6],,,,6,,,7,
{16}7,,,8,,,8<6[8:1],,{2}8,
{16}5,7,5,7,4,6,4,6,3,5,3,5,2,4,2,4,
{16}1,2,3h[16:1],,5h[16:1],,4h[16:1],,7-5[16:1],,,3-1[16:1],,,C,,
{16}7,8,7,8,6,1,6,1,5,2,5,2,4,3,4,3,
{16}1,2,1,2,8,3,8,3,7-5[8:1],,5,,47,,,,
{16}3,7,3,7,2,6,2,6,3,5,3,5,1,8,1,8,
{16}2,3,7,6,3,4,6,5,2v5[16:1],,,6,,,7,,
{16}8,1,8,1,8,1,8,1,7,2,7,2,7,2,7,2,
{16}8,7,6,5,8,1,2,3,4-8[8:1]/5-1[8:1],,,,{4}Cf,
{2}2xq5[4:6],A5,A6,A7,
{2}8<4[4:6],4h,3h,2h,
{4}1bs5[4:6],1,8,8,7,7,6,6,
{4}7b-4[4:2],4,3,2,
{24}2b,3,4h[24:10],,,,{4},{24}8b,7,6h[24:4],{8}3,2,,
{8}1x-5[8:1]/5x,1,7-4[8:1],,{24}7/4-8[8:1],3,2,{8}1,,1,
{8}1b-3[8:1],,1x/4b-8[8:1],,4x/7b-5[8:1],,1x/7x,,
{8}6x-2[8:1]/2x,6,4>1[8:1],,{24}4/1-5[8:1],8,7,{8}6,,6,
{8}6b-2[8:1],,6x/5b-3[8:1],,5x/1b-7[8:1],,1x/2x,,
{8}2-8[8:1]/6,3,2/6-4[8:1],,6/3-7[8:1],,3/1h[8:1],,
{8}1bV35[4:1],,5bV71-3[8:3],,1b,,{16}4,5,6,7,
{8}8-6[8:1]/4,3,2-4[8:1]/8,,2/5-1[8:1],,5/8-3[8:1]*-5[8:1],,
{4}8xb-2-6-4b[4:2]*z4[4:2],,,,
{8}6h[4:1]/3,3,4h[4:1],5,6h[4:1],5,4h[4:1],5,
{8}6-1[8:1],6,2v5[8:1],2,8<5[8:1],8,{8}4,{16}4,3,
{8}2h[4:1],3,4h[4:1],3,2h[4:1],3,4h[4:1],3,
{16}2-7[8:1],,4x,5x,{8}2xb/6x-3[8:1],,6b/1-5[8:1],,{4}1b/C,
{8}78,78,16,16,2b-4[8:1]/5b-1[8:1],2b/5b,Cf,,
{16}8,3,8,3,7,2,7,2,6b<1[8:1],,1b-5[8:1],,,,4,,
{16}4,3,2,1,7,6,5,4,8,1,2,3,1,8,7,6,
{24}5x/4x,3,2,1,8,7,6,5,4,3,2,1,{32}8x,7,6,5,4,3,2,1,8,7,6,5,4,3,2,1,
{1}8xbv5-7[8:5]*s4-2[8:5]/Cf,
{1}1xpp6[4:6],,
{1}7xpp4[4:6],,
{4}2xV46[4:3],,8,,8xV24[4:3],,6,,
{8}7h[4:1],,5,6,4,5,3qq5[4:3],4,
{2}3,6,
{8}2h[4:1],,,3h[4:1],,,4h[4:1],,
{8},5-1[8:3],,,6,,7,{6}8,
{6}7h[6:1],6h[6:1],5h[6:1],4h[6:1],3h[6:1],{8}2,
{4}2q5[16:7],5,,{8},{6}18,
{6}7h[6:1],5,6,2h[6:1],4,3,
{6}8<6[6:1],6>3[6:1]*>3[6:1],3>5b[3:1],,,{8},
{8}1h[4:1],,4,2,5,3,6,4,
{24}7b,6,5,4,3,2,1q3[8:3],8,7,{8}6h[8:1],{2},
{32}8b,7,6,5h[32:53],{8},,6,6,,3,3,,7,7,,4>1[32:3],4,,{32}8x,7x,6x,5x,
{8}4xbh[8:14],,,3,3,,6,6,,2,2,,5>2[32:3],5,,{32}1x,8x,7x,6x,
{8}5xb,,,7,6h[4:1],,2,3h[4:1],,8,7h[4:1],,1,2h[4:1],,{32}7x,6x,5x,4x,
{8}1bh[8:3],,,3,3h[4:1],,5,5,
{24}7x,6x,5x,2x,3x,4x,8x,7x,6x,1x,2x,3x,{8}4x/6x,{16}5x,5x,{8}5x-1[8:1],4x/6,
{4}7xb/Cf,{8},6x-8[16:1],B6,,1x-3[16:1],B1,,5x-7[16:1],B5,,2x-4[16:1],B2,,{16}6,5,
{8}7xb-4[8:1],,,2x-5[8:1],B2,,6x-1[8:1],B5,,3x-8[8:1],B6,,4x-7[8:1],B3,,,
{4}1b/8b,{12}4,3,4,2,,,5,6,5,
{8}7,8,12,{16}4,3,5,,6,,8h[16:1]/7h[16:1],,8h[16:1]/7h[16:1],,
{16}1h[32:1],6h[32:1],1h[32:1],6h[32:1],2h[32:1],5h[32:1],2h[32:1],5h[32:1],
3h[32:1],4h[32:1],3h[32:1],4h[32:1],{24}2b,1,8,7,6,5,
{8}4xh[4:3],8,8,8,8b-4[8:1],8b,8b,,
{4},,{24}1x,2x,3xh[24:10],{8},,,
{24}5x,6x,7x,{8}8xh[8:7],,,{24}4x,3x,2x,{8}1xh[8:3],,,
{24},2xb/7xb,3xb/6xb,{8}5xbw1[8:7]/4xbw8[8:7],{4},,,
{4},,1-5[8:1]/8-4[8:1],1b/8b,
{24}1x/7b-1[8:1],2,3,{8},7x-5[8:1]/4,,{24}7/4xb-8[8:1],3,2,,,,C/2x,,,,,,
{16}4b-8[8:1],,,3,4<3[4:1],,,,4x,,,,5-7[8:1],,5,,
{24}1b,2,3,{16}4h[4:1],8-6[32:3],,,8,,1-5[8:1],,,5,,,7,,
{4}7b-4[8:1],7-1[8:1]/2-6[8:1],2/7-3[8:1]*-4[8:1],Cf,
{8}5x/2xb-8[8:1],,{24}2x-4[8:1]/7,6,5,{8},{24}2/5xb-1[8:1],6,7,,,,C/8x,,,,,,
{16}7b-1[8:1],,,1,7-5[16:1],,3h[8:1],,{24},2x,1x,{16}8x,,1x/5x,,26,,
{16}3/7b-3[8:1],,,2,,,1,,8b-4[8:1],,,5,,,6,,
{16}7,,7,5,7,,7,,7-4[8:1]/8,,7,,7b/1,,,,
{16}2b>4[8:1],,6,5,2,,7,,2-6[8:1],,6,,2,,8,,
{16}7b<4[8:1],,2,3,7,,1,,7-3[8:1],,3,,7,,1,,
{16}2x/4,,2,3,4/7x,,7,6,5/1x,,2,3,4/8x,,7,6,
{4}5/1bV35[4:1],5bV71[4:1],1b-3[8:1],{24}5b,6,7,{8}8,
{4}1xv4[8:1],1/8,{24}2-4[8:1]/7x,6,5,{8}4-8[8:1],2x,7,
{16}7b<4[8:1],,,4x,,,3x,,2b>5[8:1],,,5x,,,6x,,
{16}8h[8:1],,,5/7,,,6/4,,2h[8:1],,,5/3,,,4/6,,
{4}E2/B2f/B3/E4,E8/B7/B6f/E6,Cf,B1/B8/Cf/B4/B5/B2/B3/B7/B6,
{8}2h[16:1]/4h[16:1],2h[16:1]/4h[16:1],2h[16:1]/4h[16:1],2h[16:1]/4h[16:1],3h[16:1]/5h[16:1],3h[16:1]/5h[16:1],3h[16:1]/5h[16:1],3h[16:1]/5h[16:1],
{8}6h[16:1]/4h[16:1],6h[16:1]/4h[16:1],6h[16:1]/4h[16:1],6h[16:1]/4h[16:1],{24}7,5,7,5,,,2,4,2,4,,,
{8}1h[16:1]/5h[16:1],1h[16:1]/5h[16:1],2h[16:1]/6h[16:1],2h[16:1]/6h[16:1],3h[16:1]/7h[16:1],3h[16:1]/7h[16:1],4h[16:1]/8h[16:1],4h[16:1]/8h[16:1],
{8}3h[16:1]/7h[16:1],2h[16:1]/6h[16:1],1h[16:1]/5h[16:1],2h[16:1]/6h[16:1],3h[16:1]/7h[16:1],4h[16:1]/8h[16:1],3h[16:1]/7h[16:1],3h[16:1]/7h[16:1],
{8}2b-5[8:1],2,8b-4[8:1],8,3b-1[8:1],3,7b-3[8:1],7,
{8}5b-2[8:1],5,1b-6[8:1],1,4b,{24}4,3,2,{8}1,{24}7,6,5,
{16}2h[16:3],,,1,,,38,,7h[16:3],,,8,,,16,,
{8}4/5pp4[4:2],,1,1,{48}A1,D2,A2,D3,A3,,{8},Cf,,
{24}4xq5[8:13],5x,4x,{8}5x,,,{24}7x,8x,7x,{8}8x,,,
{24}2x,1x,2x,{8}1x,,,{24}6x,4x,6x,{8},,,
{24}2xv8[8:13],8,2,{8}8,,,{24}6x,5,6,{8}5,,,
{24}3x,4,3,{8}4,,,{24}7x,2,7,{8},,,
{24}2bx>5[8:1]/1x,,,{8},{24}5bp1[8:1],6,7,{8}8,1x,,{24}8b,7,6,{8}5,
{24}7bx<4[8:1]/8x,,,{8},{24}4bq8[8:1],3,2,{8}1,8x,,{32}1xbh[64:1],2xh[64:1],3xh[64:1],4xh[64:1],5xh[64:1],6xh[64:1],7xh[64:1],8xh[64:1],
{1}1bs5b[4:2]*V73[4:2],
{16}1x/8x,,3,4,2x/5x,,6,5,7x/4x,,,,1b/8b,,,,
{16}1,8,1,8,1,8,1,8,2,7,2,7,2h[8:1],,5,4,
{16}5,4,6,3,5,4,5,4,7xb,4,5,2xb,5,4,6xb,,
{16}1,7,1,7,1,7,1,7,2,8,2,8,2,8,2,8,
{16}1,8,1,8,2,7,2,7,3xh[8:1],,5,4,5,4,5,,
{16}2,1,2,1,3,,7,8,7,8,6,,3h[16:1],,5,4,
{16}5,,6h[16:1],,4,5,4,,6xb,4,5,3xb,5,4,6xb,,
{16}4,5,4,5,3,6,3,6,2,7,2,7,1,8,1,8,
{16}1,1,1,1,1,1,1,1,1x,,1x,,{24}1xb/8xb,27,36,{8}45,
{24}1x,2x,3x,4x,5x,6x,7x,8x,1x,2x,3x,4x,5x,6x,7x,8x,1x,2x,3x,,,7x,6x,5x,4x,3x,2x,1x,8x,7x,6x,5x,4x,3x,2x,1x,{48}8xb,,7x,,6x,,5x,,,4xb,3x,,2x,,1x,,8x,,7xb,,,,,,
{24}3x,4x,5x,6x,7x,8x,1x,2x,3x,4x,5x,6x,7x,8x,1x,2x,3x,4x,5x,6x,7x,8x,1x,2x,{24}3x/7x,6x,5x,1x,2x,3x,8x,7x,6x,2x,3x,4x,{16}5xb/7xb,,4xb/6xb,,3xb/5xb,,,,
{32}1x,2x,3x,4x,5x,6x,7x,8x,1x,2x,3x,4x,5x,6x,7x,8x,1x,2x,3x,4x,5x,6x,7x,8x,1xb/5xb,,,,,,,,7x,6x,5x,4x,3x,2x,1x,8x,7x,6x,5x,4x,3x,2x,1x,8x,7xbh[16:3],,,,,,3xbh[16:3],,,,,,5xb,,,,
{32}2xb,3x,4x,5x,6x,7x,8x,1x,2x,3x,4x,5x,6x,7x,8x,1x,2x/6xb,5x,4x,3x,2x,1x,8x,7x,6x,5x,4x,3,2x,1x,8x,7x,6x/1xbh[64:1],2h[64:1],3h[64:1],4h[64:1],5h[64:1],6h[64:1],7h[64:1],8h[64:1],1h[64:1],2h[64:1],3h[64:1],4h[64:1],5h[64:1],6h[64:1],7h[64:1],8h[64:1],{4}1bw5[8:1],1-7v5-3-5v7-1b[4:16],{16}1,2,3h[8:31],
