&title=Brain Rot
&artist=Tokyo Manaka feat. Kasane Teto
&first=0.25
&des=HappyToBrainRot
&lv_5=13+
&inote_5=(135)
{4}
2h[4:1]/7,
{8}
,7pp4[2:1],7/3,,2h[8:1],,3h[4:1],,,
{8}
5<8[6:1]/4-1-4b[3:1],5,4,,,8,7h[8:1],1-7-5-7-1[2:1],,3h[4:1]/1,,,,
{8}
4h[4:1],,1,,3b/A7/E8/D8,C,A5/B5/E2/D2,,
{8}
8x-3[8:1]/4,3-8<5[4:1],8x,5-1-4[4:1],5x,4-7-2[4:1],4x,2-5-8-4-8b[2:1],3x,4x,4h[8:1],3b,3b,,2bx/6bx,,
{8}
1-4[8:1]/5,4-2-6[4:1],4x,6-8-4[4:1],6x,4-2-6[4:1],5x,6-8-4[4:1],5x,4-2-6[4:1],5x,6-8-4[4:1],5x,5h[4:1],Cf,,
{8}
2-4[8:1],1,8-6[8:1],8,1-3[8:1],1,7-5[8:1],8,2/7b,3,4h[4:1]/5,6,7h[4:1],3,2qq5[2:1],2/5,6h[4:1],,,,,
{8}
6/3-8[8:1],5/4,3b/7,,
{8}
8-3[8:1]/2,1/7,8b/6,,,
{8}
3bx/4bx,,
{8}
6b-8-2-4-6b[1:1]/5b-7-1-3-5[1:1],,,,,,,,,,,
{8}
7/8,1/2,2,3/5h[2:1],,1b-4v6-1b[1:1],,,5x,5h[8:1],,5x
,5h[8:1],,5x,5h[4:1],2,3,4,4h[4:1],,2b<4b[1:1],,3x,3h[8:1],,2x,2x,2h[8:1],,1b,1x-6-3-8-5-2[3:4],1x,,,,,
{1}
Ch[1:1],
{8}
,,1/5,,3,,4/8,,
{8}
2-5[8:1]/8,7/1,7-4[8:1]/2x,8,7x/3x-8[8:1],2,3x/6-3[8:1],7,6x/2-7[8:1],1,2x/5w1[8:1],5,5b,,
{8}
2x/8x,3/7,6/4,
{8}
4,2x-7[8:1]/3,2,3x-6[8:1],3,
{8}
2x-7[8:1],2,3x-6[8:1],3,2,1,8/3,7,
{8}
6-8[8:1]/2-5[8:1],6/2,6x-2[8:1]/2x-6[8:1],,
{8}
6x/2x-8[8:1],,6/2-6[8:1],5,7/2x-5[8:1],5,2-8-4-7[2:1],,
{8}
2x/3,3,2,1,1,8,2h[2:1]/7-1z5[3:1],,,,,
{32}
2,3,4,,7b,,,,1,2,3,,6b,,,,8,1,2,3,
{8}
5b,3h[8:1],6>7[4:1],7/8,6/2,,
{16}
3,4,2h[8:1],,7,8,6h[8:1],,
{16}
1x-6[8:1],2x,1x,,3/1-4[8:1],,
{8}
,1-5[8:1]/7,,1w5[8:1]/3,,1x/8bx,,
{16}
6,4,5b,,2-8[8:1],,7,,2-5[8:1],,6-2[8:1],,2-4[8:1],,6x,,,,1,,
{8}
1h[4:1]/6,5,4h[4:1],2,3,
{32}
E3,B2,B1,E1,B5,B6,B7,E8,E1/2x,D8,A7,D7,
{8}
2-5[8:1]/A6f,1,7-4[8:1]/2x,8,7x/3x-8[8:1],2,3x/6,7,6x/2-7[8:1],1x/7x-4[8:1],4-1[8:1],1-6[8:1],6-3-8[4:1],,,,
{8}
5h[4:1],,
{16}
1,1,4x/2x,,7,7,6x/4x,,
{8}
2-4-6-4-2[2:1]/1,8,7h[4:1],,,
{8}
A8/B8,A1/B1,A2/E3/D3,A7/D7/A6,,E7f/B7/B6/E8/E6/A7/A6,
{8}
1-3[8:1],1,8-6[8:1],8,1-3[8:1],8,7-5[8:1],8,2/7b,3,4h[4:1]/5,6,
{16}
7,7,3b-1b[16:1],,,,
{8}
3x<5[8:1]/7,7,3-1[8:1],6h,3-5[8:1],8,3>1[8:1],7,3-5-7-5-3[2:1],8,1,1,
{16}
1,8,7,6,5hx[8:1],,1x,,
{64}
1b/5b,2x/6x,3x/7x,4x/8x,,,,,,,,,,,,,
{8}
3-6[8:1],3h[8:1],7-2[8:1],7h[8:1],4v1[8:1],4h[8:1],8v5[8:1],8h[8:1],2>5[8:1],2,7>4b[6:1],7,,
{32}
,,5,6,
{8}
4xb>1[8:1]/7,5,5<8[8:1],5,1-5[8:1],2,3/1,6,
{16}
7/5-1[6:4],,4/6,,5/7,,6,6,7x,,7,,7,,7x,,7b-1z5-3b[1:1],,,,,,,,,,,,,,,,,,,,,,
{8}
1,2/6,3,
{16}
3,4,2h[8:1],,8b-6z2<4b[1:1],,,,,,,,,,,,,,,,
{8}
,,,2,3,4,4h[4:1]/5,6,7>5[1:1],,7hb[2:1],,,,,,,,,
{16}
6,4,5,3,4,2,3b>3b[1:1],,,,,,,,,,,,,,,,,,,,,,,,
{4}
E6/B6/B7/E8,E4/B3/B2/E2,1b/8b,
{8}
1-4[8:1],1,8-6[8:1],8,1-3[8:1],1,7-5[8:1],8,2-5-2[4:1]/7b,2,2/7,
{16}
,,7,1,6,8,
{32}
5h[4:1]/7b,6x,,4x,3x,2x,1x,,
{8}
8bx-3[8:1],B6/B7,7-4[8:1],6,1-5[8:1],2,8-6[8:1],7,2-4[8:1],3,8-6[8:1],1,2-4[8:1],1,
{32}
2x,,,,8,7,6,5,
{8}
2b-5[8:1],1,7-4[8:1]/2x,8,7x/3x-8[8:1],2,
{16}
3x/6,6,6,,
{8}
6x/2-7b[8:1],1x/7x-4b[8:1],4-1b[8:1],1-6b[8:1],6-3-8b[4:1],,,,
{8}
5h[4:1],,3,3h[8:1],,8/4,
{32}
4/8,3/7,2/6,1h[4:1]/5h[4:1],,,,,,,,,,,,,1/5,2/6,3/7,4/8,5/1,,,,1bw5[6:1]/8bx,,,,,,,,1b,,,,,,,,
{8}
Cf,,
{8}
2h[4:1],3,7h[4:1],6,3h[4:1],4,6h[4:1],5,4,3/7h[4:1],2-5-2[4:1],1,2/8b,,
{32}
8,7,6,5,4-8[8:1]/2x,,,,
{8}
,4-1[8:1]/6,6,4-7[8:1]/2,2,4x/3,
{8}
2,1,1h[4:1],3,6,
{32}
2x,3,4,,8b,7,6,,1b,2,3,,7b,6,5,,
{8}
4bx/3bh[4:1],5,6h[4:1],5,2h[4:1],3,7h[4:1],6,5,4,3,2p6p2b[2:1]/6,6,2b,,C,,,,,
{32}
2,3,4,,7b,,,,1,2,3,,6b,,,,8,1,2,3,5b,,,,
{8}
3/7,1w5b[8:1]/5,3/7,1b,E
