&title=Astral
&artist=ak+q
&first=-1.27
&lv_5=13+
&des_5=A|V.R.exe
&inote_5=
(90){4},{16},,,,,,,,,,,,6pp2[2:1],
,,,,,,4h[16:7],,,,,,,{8}8,
{16}7/5,,,6/4,,,{8}5/3/6/7/8,{4}4/2,3/5,
{16}2qq6[2:1],,,4,,,,5,,,,7,,,{8}8,
4h[8:1],8,{16}7/3,,,6/2,,,{8}5/1,2/6,3/7,
{16}8/4qq8[8:3],,,7,,6,,5,,,,,{4}2b/6b,
{16}3h[8:1]/4h[8:1],,,2/5,,4/3>8s4[16:5],,2/5,,,,,,,,,6h[8:1]/5h[8:1],
,,7/4,,6,5,7/4,{32},,E7,B6,{16}B5,{32}E1,B1,B2,E3,B3,B4,{16}6/E5,7,
8/2,4,2/8,1/7,5,7/1,3/6,6/3,,7/2,{32}1,8,1,{64}7x,6x,5x,3x,2x,1x,{16}Cfh[16:1],,,,,,,,4,
{8}2/6,{16}8h[8:1],A2,B2,D3/7<4[8:1],B3,A3,B4,7/D4,
,,{8}1-6[16:1],2/8,3/1,{16}4h[8:1],A6,B6,D7/3>8[8:1],B7,A7,B8,3/D8,
,6h[16:3],,B4,B3,E3,5x/B2,A2,1xh[8:1],A7,B7,D7/2>5[8:1],B6,A6,B5,2/D6,
,,{8}1-6[16:1],2/8,3/1,{16}4/3,4/2,1,7/8,{8}8/7h[16:1],{16}5,6/5,
4,{32}3,4,{16}2,{32}6,5,{16}7<5[16:1],{32}2,8,{8}1,{16},A2,B1,D3/5<8[8:1],C,A3,B4,5/D4,
,,{8}1-6[16:1],2/6,1/4,{16}4h[8:1],A6,B5,D7/3>8[8:1],C,A7,B8,3/D8,
,6h[16:3],,B4,B3,C,5x/B2,A2,1xh[8:1],A7,B8,D7/2>5[8:1],C,A6,B5,2/D6,
,,{8}1-6[16:1],6/3,1/4,{32}2,3,4,B6,B7,B8,3,2,1,7,6,5,B3,B2,B1,6,
7,8,4,3,2,7,6,5,4,3,2,1,8,7,6,5,{16}4x/3x-5[16:1],5x-1[16:1],1-7[16:1],7>4[16:3],{4}6h[16:3],
{16},,,5,E6,E7,3/E8,E1,4-6[16:1],6-3[16:1],3-7[16:1],7>5[16:3],{4}8h[16:3],
{16},,,6,7h[8:1]/E4,E3,E2,E1,7-4[16:1],4-1[16:1],1-5[16:1],5>7[16:3],,,,2V46[8:1],
,,,5h[16:3],,,{8}8,{16}1h[4:1],7,6,5,6,7/2,,6h[16:5],
,4,{8}3,{16}1>5[8:1],3<7[8:1],5<1[8:1],7>5[16:3],8h[4:1],,,,,,,3b/7b,
,,{8}2/6,{64}2x,3x,4x,6x,7x,8x,{32}Cfh[32:5],,,,,{16}8h[16:3],,,E3,,E7,,E1,
,,,,,,,,2h[16:3],,,E7,,,B3,E6,
{32},,5,5,{8}4x<2[8:1],{96},7x,6x,5x,{48}1x,2x,3x,4x,,,,,,,{8}Cf,{16}7-3[16:1],5>1[8:1],6,4,7,5,
,,8/7-2[16:1],{32}3,5,{16}4,6,{8}3/7,{16}1,8,2,{64}8>6b[16:3],7,6,5,{16}1,7,2,8b,
,,1,2,3,{32}4,5,3,6,2,7,{8}1b,{16}1-5[16:1],6-3b[16:1],8,7,1,6,
,,1/2-7[16:1],{32}6,4,{16}5,3,6/2,8,{64}2x/8,3x,4x,5x,{16}8,8,{64}1/7x,6x,5x,4x,{16}1,1,{64}8/2x,3x,4x,5x,{16}8,
8,{64}8x/1x,7x/2x,6x/3x,5x/4x,,,,,,,,,{32}8q2[8:1],1,2,3,7,6,5,4,,,,,{16}7,8q6b[8:1],1,2,3,8/4,
,,1,{32}4,3,{16}2/5,6,7,8,1-4[16:1],8-5[16:1],2,6<3b[8:1],1,8,3,6,
,,D6/E6/A5,B4/D4/B3,A6,B3,B7,E2,8-5[16:1],5-1[16:1],1-4[16:1],4>5b[16:3],{4}8,
{16},,4-8[16:1],{32}3,2,{16}1,6,{8}4,{32}4,3,2,6,7,8,{64}5,E5,B4,B3,{16}B2,8,{32}1,7,2,6,
3,5,4,6,7,8,2,3,6/4,7,8,2,3,4/5,6,7,{16}8/Cf,,,3/B7/B8,,B3/B2/7-1v3[16:5],,C,
,,,,,,,,7h[16:3],,,E3,,,B6,E4,
{32},,4,4,{8}5x>1[16:7],{32}6,6,{16}5x<1[4:1],,,,,,,,,,,{8}7/4,
{16}5,6/4>8[16:7],,6,5,4/7,,B7,D7,B6,A6,B5,D6,E5,
{8}1,{16}2/4,5pp1[16:7],4h[16:3],7,,5,,A2,B2,D3,B3,A3,B4,D4,
8h[8:1]/D5,,,7q3[16:1]/1p5[16:1],6/2,8,,7b/1b,,,3,5h[16:1],7h[16:1],1h[16:1],3h[16:1],6,
5-1[16:1],1-7[16:1],7-5[16:1],5>5b[4:1],{4}3h[4:1],{16},,4-8[16:1],{32}3x,2x,{16}1x,3/6,{8}4,
{16}3,6,4/7-2[16:1],2-5[16:1],6,3,7,1h[16:3],,,5-1[32:1],{64}1x,2x/8x,3x/7x,6x/4x,,,,,{16}3/7,{8}5b/Cf,
{16}E7/B7/B6,,,B2/B3/E3,,B5/B4/E5,,E1/B8/B1/6<4[16:13],,,,,,,,,E8/B7/B8,
,,8-4b[16:1],,,8,8,
E
