&title=αterlβus (2025 Remaster)
&artist=Aoi
&first=0.025
&des=覆途(CupLid)
&des_5=
&lv_5=14+
&inote_5=(202){4},,,{16},,{32}1,2<1v4>3[32:51]/8qq5[32:51],7/3,6/4,
{1}5b,
,6V48[2:3]/4>3v2-8[2:3],
{16},,,,,,,,,,,,,,,,7/4,
,,6,{8}5,4/7h[8:3],,,5,6h[8:3],
,,5,{16}4,5,{8}4,5,4>5[4:7],3h[8:7],
,,,,,,,,{1}4x>1[2:1],
{16}6/2,,,3,{8}7,4,{4}7/8,{8}7/8,1,
{16}6/2,,,3,{8}6,4,6/5,7,6/5,4,
{16}2/6,,,5,{8}2,4,{4}2/1,{8}2/1,8,
{16}3/7,,,6,{8}3,5,3/4,2,3/4,5,
1/7,6,8/2,{16}6,5,{8}7,3,2/8,{16}3,4,
{8}2,6,7/1,{16}6,5,{8}6,{16}3,4,{8}3,5/2,
{16}3,4,3,4,2,5,2,5,1,6,1,6,8,7,8,7,
{8}8h[8:1],{32}A7,D7,A6,D6,{8}1h[8:1]/A5,{32}A2,D3,A3,D4,{2}A4/8<1[4:1],
{4}8b,{8}2/6,3,4/5,3,2/6,3,
4/7,6,5/3,6,7/4,6,5/3,2,
1/4,2,5/3,2,1/4,2,5/3,7,
8/5,7,6/4,7,8/5,7,6/3,2,
1b/5,{16}3,4,{8}3,{16}6,5,{8}6,{16}3,4,{8}3,{16}6,5,
{8}6,{16}2,4,{8}3,{16}7,5,{8}6,{16}2,4,{8}3,{16}7,5,
{8}6,{16}1,4,{8}3,{16}8,5,{8}6,{16}1,4,{8}3,5/4,
{2}2h[4:1]/6<5[4:1],{32}A1,D2,A2,D3,A3,D4,A4,D5,{4}8b/A5f,
{16}3/7-4[8:1],,,8,{8}7,1,{4}5/3,{8}5/6,{16}3,4,
2-5[8:1],,,1,{8}2,8,{4}4/6,{8}3/4,{16}2,1,
3-8[8:1],,,4,{8}3,5,{4}1/7,{8}1/2,{16}7,8,
6-1[8:1],,,5,{8}6,4,{4}8/2,{8}7/8,{16}2,1,
{8}3>8[8:1],4,5-1[8:1],6,4-8[8:1],3,6<1[8:1],5,
2>4[8:1],2,8-4[8:1],8,1-5[8:1],1,7<5[8:1],7,
{16}4,3,2,1,8,7,6,5,4/8,1,2,3,4,5,6,7,
{8}8/1,{32}2,3,4,5,{8}8-4[8:1],{32}2,3,4,5,{16}8-2[16:1],,,8x-6[16:1],,,{8}8x,
{16}4b,,,3,{8}4x,2,{16}5/4,,,6,{8}5x,7,
{16}4/5,,,3,{8}4x,2,{16}5/4,,,6,{8}5x,7,
{16}5h[16:1]/4h[16:1],,,3h[16:1],{8}4xh[16:1],2h[16:1],{16}5h[16:1]/4h[8:1],,,6h[8:1],{8}5xh[8:1],7h[16:1],
{16}5h[16:1]/4h[8:1],,,3h[8:1],{8}4xh[8:1],2h[16:1],{16}5h[8:1]/4h[16:3],,,6h[8:1],{8}5xh[8:1],7h[16:1],
{16}4h[8:1]/5h[16:3],,,3h[8:1],{8}4xh[8:1],1h[16:1],{16}5h[8:1]/3h[16:3],,,6h[8:1],{8}5xh[8:1],8h[16:1],
{16}6h[16:3]/4h[16:1],,,3h[8:1],{8}4xh[8:1],1h[16:1],{16}3h[8:1]/5h[16:1],,,6h[16:1],{8}5xh[8:1],8h[16:1],
{16}6h[8:1]/4h[16:1],,,3h[8:1],{8}4xh[8:1],1h[16:1],{16}5h[16:1]/3h[16:1],,,6h[16:1],{8}5xh[16:1],8h[16:1],
{16}6h[16:1]/4h,,,3h[16:1],{8}4xh,1h[16:1],{16}3/5,,,6,{8}5x,8,
7b/3b,6,5,4,{4}3/1<6[8:1],{8}5,5-1[8:1],
,2>5[8:1],2,8<5[8:1],8,1,2,3,
3,5,4,5,{4}6/8>3[8:1],{8}4,4-8[8:1],
,7<4[8:1],7,1>4[8:1],1,6,7,8,
7-1[8:1],6,3-5[8:1],2,7-4[8:1],8,2-5[8:1],1,
7<5[8:1],7,1-5[8:1],1,8-4[8:1],8,2>4[8:1],2,
{16}5,6,7,8,1,2,3,4,5/1,8,7,6,5,4,3,2,
{8}1/8,{32}7,6,5,4,{8}1,{32}7,6,5,4,{8}1,{32}2,3,4,5,{8}8-6-4-2-7-5-1[4:3],{32}2,3,4,5,
{1}8b,
{8}2b/8b,8b/2b,2b/8b,8b/2b,{16}1-5b[8:1],1,1,1,{32}1b,,,,,,,,{8}3/7,
{16}6-1[8:1],5,,,{8}6/4,{16}2-6-4[16:3],,,4-1[8:1],{8}2,8,
7,8-6[8:1],1,2/8-4[8:1],3-1[8:1],8,3,5,
6/2,{16}3-8[8:1],4,,,{8}3/5,{16}7-3-5[16:3],,,5-8[8:1],{8}7,1,
2-8[8:1],3,2/7-4[8:1],6,7/1-5[8:1],2,1/8,7,
6/4,{16}2-5[8:1],1,,,{8}8/2,7-1[8:1],{16}3,,{8}7-4[8:1],{16}2,,
{8}7,1,3/5,7,4/6-4[8:1],7,6/2-5[8:1],1,
{16}2/6,7,8,1,6,7,8,1,5,6,7,8,5,4,3,2,
{8}8/1,{32}7,6,5,4,{8}1-5[8:1],{32}7,6,5,4,{16}1-7[16:1],,,1x-3[16:1],,,{8}1x,
{2}5bw1b[8:1],{16}3/7-3-5[16:3],,,5V71[16:3],{8}7,1,
2,3-5[8:1],8x,7/3-8[8:1],6-2[8:1],3,6,1,
1x/7x,{16}6-1[8:1],5,,,{8}6/4,{16}2-6-4[16:3],,,4V28[16:3],{8}2,8,
7-4[8:1],6,7/2-6[8:1]
,1,2/8V64[8:1]*V24[8:1],7,{4}8x,
{8}7-5[8:1],8,1q5[8:1],2,8p4[8:1],7,2-4[8:1],1,
7-3[8:1],7,8-4[8:1],8,1-5[8:1],1,2-6[8:1],2,
8h[16:1],8h[16:1],7h[16:1]/1h[16:1],7h[16:1]/1h[16:1],6h[16:1]/2h[16:1],6h[16:1]/2h[16:1],5h[16:1]/3h[16:1],5h[16:1]/3h[16:1],
{16}4b,4b,4b,4b,{4}4b-6-1>2-5[8:3]*-7>8-3-5[8:3],,,{1}Cf/B7/E7/B3/E3/D3/D7/E8/E4,
{16},,,,,,,,,,,,,,,,E3,
E4,E5,E6,E7,E8,E1,E2,D3,D4,D5,D6,D7,D8,D1,D2,
D3/A5/D6f,,,8b/E4f/A3,,,{8}2b/E6f/A6,{16},7b/D4f/A4,,,{8}8/1,7/2,
8b/1b,{16}3-8[8:1],1,,,{8}7/3,{16}7-4-6-1[8:3],,,4,{8}7,3,
2<7[8:1],3,7/2-6[8:1],6-4-1[4:1],2,7,8,8,
2/7-1[8:1],6,3-5[8:1]/7,2,3/8-4[8:1],7,3/8,3,
{16}2,1,{48}D3/E3,E4,E5,D6,,,{16}7,8,{48}D7/E7,E6,E5,D4,,,{16}2h[8:1]/8h[8:1],,,7h[8:1]/3h[8:1],,,{8}6/4,
5/2,{16}2,4,{8}2,5/2,{16}2,4,{8}2,5/2-5[8:1],3/4,
2/6-2[8:1],7,6/4-8[8:1],3,{4}8>3[8:1]/4<7b[8:1],4bx,
{8}8/4,{16}7,1h[16:1],{8}7,3/7,{16}7,5h[16:1],{8}7,8/4>1[8:1],5/7,
4/8<5[8:1],7,8/2pp3[8:1],3>8b[8:1],2,{16}7b,6b,{8}5b,1x,
{16}6bx,5,7,2x,4,3,6x,5,7,2x,4,3,6x,5,{8}7,
{16}3bx,4,1,7,5,6,3x,4,2,8,5,6,3x,4,2,4,
1b,5,1,5,{48}D2/E2,A2,D3,A3,D4,A4,{8}7,{16}8b,4,8,4,{48}D8/E8,A7,D7,A6,D6,A5,,,,,,,{16}2,
1,{48}E3/D3,E4,E5,D6,,,{16}7,8,{48}E7/D7,E6,E5,D4,{96},,,,{32}E3/D3,A3,A4,A5,A6,A7,A8,A1,{64}2bx,D3/E3,3bx,D4/E4,4bx,D5/E5,5bx,D6/E6,6bxqq4<5V71<5[8:23],D7/E7,7bx,D8/E8,8bx,D1/E1,1bx,D2/E2,
2bxqq8>1V35>1b[4:11],D3/E3f,{1},,,{4},,,{16},,,{32},{1}6h[4:3]/5h[8:3],
3h[4:3]/4h[8:3],
7h[4:3]/5h[8:3],
4h[8:3]/2h[4:3],
{16}E6,,,E5,,,{8}E4,{16},,,,,,,,E8,
,,E1,,,{8}E2,,,{4}6,
{16}7/5,,,6,{8}5,4/6,,,3,4,
2/5,{16}3,4,{8}3,5/2,5,3,2/6,5/3,
{16}4,4,4,4,4,4,4,4,4,4,4,4,4,4,4,4,
4,4,4,4,4,4,4,4,4,4,4,4,4z8b[1:3],4,4,4,
{1}4bh[1:3],
E
