&title=アフターエポックス[full.ver]
&artist=sasakure.UK/初音ミク
&first=0
&des=Tail_R
&lv_5=13+
&inote_5=(152.001)
{1},{8},{32},,
{8}3,3h[8:3],,,4h[2:1],,,,
{8}5h[4:1],,{32}E8,A7,,,{8},,,,,
{8}6,6h[8:3],,,5h[2:1],,,,
{8}4<3[2:1],,,,,,,,
{8}2,2h[8:3],,,3h[2:1],,,,
{8}4h[4:1],,{32}7xqq8[2:1],,,,{8},,,,,
{8}1,1h[8:3],,,2h[2:1],,,,
{1}3>6[2:3]*q6[2:3],
{1},{8},
(152)
{16}3>8[8:1],,,,6h[4:1],,,,,,6,4,5h[4:1],,,,
{8}4>1[8:1],,7,,{12}7x,6x,5x,6x,5x,4x,
{16}3<6[8:1],,,,7h[4:1],,,,,,7,1,8h[4:1],,,,
{8}1-5[8:1],,6h[4:1],,E3,B3,B4,E5,
{16}6<1[8:1],,,,3h[4:1],,,,,,3,5,4h[4:1],,,,
{8}5<8[8:1],,2,,{12}2x,3x,4x,3x,4x,5x,
{16}6>3[8:1],,,,2h[4:1],,,,,,2,8,1h[4:1],,,,
{1}8pp6[2:1],
{8}1h[4:1]/6h[4:1],,,5h[8:1]/2h[8:1],,{16}3,5,4,,{8}6pp4[8:5]/3,
{8},,,E3,,,,,
{8}4h[4:1]/6h[4:1],,,2h[8:1]/8h[8:1],,{16}7,1,8,,{8}2h[8:7]/8,
{16},,6,,E8,E7,E6,E5,E4,E3,E2,E1,E8,E7,E6,E5,
{8}3h[4:1],,,4h[8:1]/7h[8:1],,{16}6,4,5,,{8}3qq4[8:5]/6,
{8},D5,,,,E7,,6,
{8}5V73[8:3]/3,,,,2h[8:3],,,,
{8}1>4[8:1]/8,7,1,6,5-8[8:1]*-2[8:1],,,,
{8}3>8[8:1]/4,5,3,6,7-4[8:1]*-2[8:1],,,,
{8}8<5[8:1]/1,2,8,3,4w8[8:1],,,,
{2}8h[4:1]/1xV35[8:1],3h[4:1]/5x<1[8:1],
{16}2-5[8:1]/8,,3,1,2,,7,,6^1[8:1]*^3[8:1],,,,6,,,,
{16}3-8[8:1]/5,,2,4,3,,6,,7^4[8:1]*^2[8:1],,,,7,,,,
{16}3,5,3,5,2,5,2,5,1,5,1,5,8,5,8,5,
{8}7b>4[4:1],,,4,5,6,7,8,
{8}1b-6[8:1]/3b-8[8:1],,,,8V24[8:1],4,5,6,
{8}5b-2[8:1]/7b-4[8:1],,,,2V46[8:1],6,7,8,
{8}1-5[8:1],1,4-1[8:1],4,7-3[8:1],7,8qq4[8:3],1,
{8}2bh[4:1],,,2,2^7[8:1],7-3[8:1],2,6h[8:1],
{8},6,6^1[8:1],1-5[8:1],6,2h[8:1],,2,
{8}2^5[8:1],5-1[8:1],2,6h[2:1],,3,2,1,
{16}8bh[4:1],7x,6x,5x,4x,,1bh[4:1],8x,7x,6x,5x,,2bh[4:1],1x,8x,7x,
{16}6x,,3hb[4:1],2x,1x,8x,7x,,4bw8b[8:1],,,,,,,,
{8}8b-3[8:1]/6b-1[8:1],,86,,1V75[8:1],5,4,3,
{8}4b-7[8:1]/2b-5[8:1],,42,,7V53[8:1],3,2,1,
{8}8-4[8:1],8,5-8[8:1],5,2-6[8:1],2,1pp5[8:3],8,
{8}7bh[4:1],,,7,7^2[8:1],2-6[8:1],7,3h[8:1],
{8},3,3^8[8:1],8-4[8:1],3,5,6,7,
{8}8^5[8:1],5V71[16:3],8,3,4w8b[8:1],,4b,,
{16}2h[8:1]/4h[8:1],,,3h[8:1]/5h[8:1],,,4h[8:1]/6h[8:1],,,5h[8:1]/7h[8:1],,,8b/1b,,,,
{16}3h[8:1]/5h[8:1],,,4h[8:1]/6h[8:1],,,5h[8:1]/3h[8:1],,,4h[8:1]/6h[8:1],,,1b/8b,,6x,5x,
{16}4xh[8:1]/7xh[8:1],,,3h[8:1]/5h[8:1],,,4h[8:1]/6h[8:1],,,3h[8:1]/5h[8:1],,,1b/8b,,,,
{16}5h[8:1]/7h[8:1],,,4h[8:1]/6h[8:1],,,3/5,,E2,,E7,,E3,,E6,,
{16}7h[8:1]/5h[8:1],,,6h[8:1]/4h[8:1],,,5h[8:1]/3h[8:1],,,4h[8:1]/2h[8:1],,,1b/8b,,,,
{16}6h[8:1]/4h[8:1],,,5h[8:1]/3h[8:1],,,4h[8:1]/6h[8:1],,,5h[8:1]/3h[8:1],,,8b/1b,,3x,4x,
{16}5h[8:1]/2h[8:1],,,6h[8:1]/4h[8:1],,,5h[8:1]/3h[8:1],,,6h[8:1]/4h[8:1],,,8b/1b,,,,
{1}3qq8[2:1]/5pp8[2:1],
{16}2-5[8:1]/4,,,,6,,7-2[8:1],,,,3,4,5,,5qq1[8:5]/8,,
{8},7,7,A8,,,,{16}2x,3x,
{16}4x-1[8:1]/6,,,,7,,6-3[8:1],,,,2,1,8,,5/8pp4[8:5],,
{8},7,,E6,,D8,D7,{16}3x,4x,
{16}7-4[8:1]/5x,,,,3,,2-7[8:1],,,,6,5,4,,4pp8[8:5]/1,,
{8},4,Ch[2:1],,,,,{16}3,1,
{16}2-5-1[4:1],,,1,,,8,,7-4-8[4:1],,,3,,,2,,
{8}1v4[8:1],8,1/7,6,5v8[8:1]*v2[8:1],,5,,
{8}4/3v8[8:1],5,6/3,7,7v4[8:1]*v2[8:1],,7,,
{8}8v5[8:1]/1,2,8/3,4,4v1[8:1]*v7[8:1],,4,,
{2}5h[4:1]/4xV28[8:1],2h[4:1]/8x<4[8:1],
{16}2v5[8:1]/4,,3,1,2,,8,,7/6,,4,5,3,4,2,,
{16}6v1[8:1]/8,,7,5,6,,4,,3/2,,8,1,7,8,6,,
{16}3,4,3,4,2,4,2,4,1,4,1,4,8,4,8,4,
{1}7bpp3[2:3]*pp4[2:3],
{1},
{8}3/1-5[8:1],2,1/7,6-1[8:1]*-3[8:1],,6x,,{16}2,1,
{8}8-4[8:1]/6,7,8/2,3w7[8:1],,3,{16},C,,,
{8}4-8[8:1],4,6-1[8:1],6,2-5[8:1],2,8-3[8:1],8,
{8}4-1[8:1],4,5-8[8:1],5,2-6[8:1],2,8,7,
{16}2h[16:1],4h[16:1],3h[16:1],5h[16:1],4h[16:1],6h[16:1],5h[16:1],7h[16:1],1h[16:1],8h[16:1],2h[16:1],7h[16:1],3h[16:1],6h[16:1],4h[16:1],5h[16:1],
{16}3h[16:1],6h[16:1],1h[16:1],5h[16:1],4h[16:1],7h[16:1],2h[16:1],6,{96}4x-1[8:1],5bx-8b[8:1],,,,,,,,,,,,,,,,,,,,,,,{32}E5,Cf,E1,,,,,,
{16}6hx[4:1]/E2/B1/D2,,,,E4/B4/D4,,6x,7x,8h[4:1]/E2/B1/D2,,,,E4/B4/D4,,,,
{16}5hx[4:1]/E2/B1/D2,,,,E4/B4/D4,,5x,6x,7h[4:1]/E2/B1/D2,,,,E4/B4/D4,,6,,
{16}1x,8,2,7,3x,6,4,5,3x,4,2,5,1x,6,8,7,
{16}1bx,8,2,1,3bx,8,4,7,5bx,6,4,5,3bx,6,2,7,
{16}1bx/8x,,3,4,2b,,6,5,7b,,2,1,3b,,7,8,
{16}6b,,3,4,2b,,6,5,7b,,2,1,3b,,7,8,
{32}6bx/1bx,2x,3x,4x,5bx,6x,7x,8x,1bx,2x,3x,4x,5bx,6x,7x,8x,1bx,2x,3x,4x,5bx,6x,7x,8x,1bx,2x,3x,4x,A8f,B8,C,B4,
{1}A4,
{8}4h[4:3],,,E8,,,E7,,
{8}5h[4:3],,,E2,,,E3,,
{8}4h[4:3],,,D8,,,D7,,
{8}5h[4:3],,,D2,,,D3,,
{8}3qq8[8:7],,,E7,,,E5,,
{8}5pp8[8:7],,,E2,,,E4,,
{16}B1,B2,B3,B4,B5,B6,A8,A7,A6,A5,A4,A3,E1,E2,E3,E4,
{16}E5,E6,D1,D8,D7,D6,D5,D4,E1/B8/B1,,,,E7/E6/E5/E3/E4/B6/B5/B4/B3,,,,
{16}3/5,,,,3h[4:1]/5h[4:1],,,,,,4,6,5,,,,
{16}4/6,,,,4/6,,,,{12}3h[12:1]/5h[6:1],,,4h[12:1]/6h[6:1],,,
{16}2/8,,,,1h[4:1]/7h[4:1],,,,,,8,1,7,,,,
{8}2/8,,1/7,,D2,D6,D3,D7,
{16}6/4,,,,6h[4:1]/4h[4:1],,,,,,3,5,4,,,,
{8}1V35[4:1],1,,5,6,7,8,1,
{8}1bv6[8:1]/2b^5[8:1],,1/2,,4V28[8:1],8,7,6,
{8}5bv8[8:1]/1b^4[8:1],,5/1,,7V51[16:3],1,2,3,
{8}4-1[8:1],4,8-3[8:1],8,2-6[8:1],2,7pp4[8:3],8,
{8}1hb[4:1],,,2,3-6[8:1]/5,6V42[8:1],3,7h[8:1],
{8},1/8,6-1[8:1]/2,1V75[8:1],6,2h[8:1],,3/4,
{8}1-4[8:1]/5,4V28[8:1],1,6h[2:1],,8,1,2,
{16}2b,4,3,4,3,4,1b,5,3,5,3,5,2b,6,4,6,
{16}4,6,1b,7,5,7,5,7,{32}2b,3,4,5,6,7,8,1,2b/Cf,,,,,,,,
{8}8b^3[8:1]/7bv4[8:1],,8/7,,5V71[8:1],1,2,3,
{8}4b^1[8:1]/8bv5[8:1],,4/8,,2V48[16:3],8,7,6,
{8}5-8[8:1],5,1-6[8:1],1,7-3[8:1],7,2qq5[8:3],1,
{8}8hb[4:1],,,7,6-3[8:1]/4,3V57[8:1],6,2h[8:1],
{8},8/1,3-8[8:1]/7,8V24[8:1],3,7h[8:1],,6/5,
{8}7-4[8:1],4V61[16:3],7,3,2w6b[8:1],,2b,,
{16}2/5,,3,4,,2,1,,4-7b[8:1]*-1b[8:1],5,,3,4b,,,,
{16}7/4,,6,5,,7,8,,5-2b[8:1]*-8b[8:1],4,,6,5b,,,,
{16}3/6,,4,5,,2,1,,4w8b[8:1],5,,3,4b,,,,
{16}6/3,,5,4,,7,8,,E7/E1,,B6/B1,,B5/B2,,E5/E3,,
{16}1/5,,2,4,,4,6,,6-3b[8:1]*-1b[8:1],8,,5,6b,,,,
{16}8/4,,7,5,,5,3,,3-6b[8:1]*-8b[8:1],1,,4,3b,,,,
{16}2/6,,3,5,,5,7,,7w3b[8:1],1,,8,7b,,,,
{1}3b>4b[2:1]/5b<4b[2:1],
{16}3>8b[8:1],,,,6h[4:1]/3,,,,5,,6,4,5h[4:1],,3,,
{8}4>1b[8:1],,8,8,{12}7x,6x,5x,6x,5x,4x,
{16}3<6b[8:1],,,,7h[4:1]/3,,,,8,,7,1,8h[4:1],,2,,
{8}1-5b[8:1],,6h[4:1],,E3,B3,B4,E5,
{16}6<1b[8:1],,,,3h[4:1]/6,,,,4,,3,5,4h[4:1],,6,,
{8}5<8b[8:1],,1,1,{12}2x,3x,4x,3x,4x,5x,
{16}6>3b[8:1],,,,2h[4:1]/6,,,,1,,2,8,1,,3/7,,
{16}1b/8b,,E2,E3,E4,E5,E6,E7,E8,E1,E2,E3,E4,E5,E6,6xp3b[1:1]/3x>6b[1:1],
E
