&title=[創作譜面]ピュグマリオンの咒文
&artist=アリスシャッハと魔法の楽団
&first=0
&des=おにねこ
&wholebpm=190
&lv_5=14
&inote_5=(190){1},,
{8}
2b,5h[8:1],4h[8:1],7b,5,,
7b,4h[8:1],5h[8:1],2,4-1[16:2],,5b,,,,
7b,5h[8:1],4h[8:1],2b,4,,
2b,4h[8:1],5h[8:1],7,5>2[8:1],,,,,
{16}
5,5,3h[8:1],,4h[8:2],,2,,
3,,5,,4,,
6h[8:1],,5h[8:2],,7,,
6h[8:1],,4h[8:1],,5,,34,,
52,,6/1,,
87,,6q3[8:2],,,,5,,,,4,,4,,6,,6,,
1,5,1,5,1,5,1,5,{32}1,2,3,4,5,6,7,8,1qq4[8:4],2,3,4,5,6,7,8,
{4},5,5,5<8[16:3],4,5>1[16:4],6,5<3[16:5],1h[8:4],,4h[8:2],5,
{16}57,,,45,,,4/2,,1h[8:2],,,,7pp3[8:4],,2,,
{4}3,,4,4>8[16:4],5,4<1[16:5],3,4>6[16:5],8h[8:4],,4h[8:2],5,
{12}86,,17,,28,,3h[8:2]/1,,,
{4}7-2[8:1],4,5-8[8:1],2,3-6[8:1],1,8-5[8:1],4,2>7[16:4],7,8p1[32:9],
{8}1,,,,4h[8:1],8h[8:1],3h[8:1],8h[8:1],
{16}2h[8:1],,8h[8:1],,1-4[16:2],1,1,1,
{8}1b,,8,7/2>5[8:1],,5,6-1[8:1],,5,,3,4/2q7[16:3],,7,8h[8:2],,
1,,2/7>2[8:1],36,,4,4p8[8:1],,8,,7,6h[8:2]/1,,
3,2-5[8:1]/4-6[8:1],,
24,,7-4[8:1],4q8[8:1],,3,3>7[8:2],,7>4[8:2],,6,6,,5,6h[8:2]/4,,
2>5[8:1],2,5,6,7p3[8:1],7,3,2,
1pp5[8:4],,8,8,,6,6h[8:2],,
5>1[16:3],,7p1[8:2],7,,3,3h[8:2],,4<8[16:3],,1p2[8:2],1,,6,6>3[8:1],,
6b/3b,,2>6[16:3],1,6b/2b,,7<2[8:2],8,1b/7b,,,,1,28,3qq3[16:5]/7,6,
5h[8:4],,,,4,,6pp6[16:5],,5h[8:6],,,,
4,,3<6[16:4],,
2h[8:4],,,,7pp2[16:8],,,3,3<6[16:4],,,,7h[8:2],,8h[8:2],,
1p4[32:7],,2,,3h[8:3],,4,4-6[8:1],,2,2-4[8:1],,4,,6,5,7>2[16:3]/4,,2,,3p6[16:4],,6,,5p6[16:6],,,,4,3,2,1,
8-5[16:6],,,,4h[8:6],,,,6h[8:3],,,3h[8:5],{6}4,5,6,{8}
7h[8:4],,5,,3h[8:3],,5,{16}5,4,{6}6,75,64,{12}3,4,2,6,5,7,
{8}4-2[32:3],,8h[8:2],,1-7[32:3],,6h[8:2],,5-3[32:3],,1h[8:2],,2,83,4/7>2[32:4],56,
7b,,4,3h[8:2]/5,,8,1/7h[8:2],,5,64,35,24,
{16}1,5,1,5,{32}1-5[8:1],2,3,4,5,6,7,8,
{16},,,,64,,3,4,2h[8:1],,8,1,7-3[8:1],,6,5,7,,,,4-2[32:3],,,,4/5-7[32:3],,,,51,,2,,
3h[8:1],,6,5,7h[8:1],,1,8,2h[8:1],,4,3,5<4[16:5],,,,1h[8:4],,,,,,,,
5>2[8:1],,6,,75,,,,8,,2,1,3h[8:1],,5,4,6h[8:1],,8,7,1V73[16:4],,,,1/3V15[8:2],,,,,,,,
,,,,46,,73,,2/8,,
{32}3,,4,,2h[8:1],,,,6,,5,,7h[8:1],,,,3,,4,,1h[8:1],,,,6,,5,,8-4[16:2],,,,{16},,8/2>1[16:5]*q1[16:5],,,,
{24}2b,,,,,,{4},
{8}2-5[8:1]/5,,2V85[16:3],,2b/8b,,
6V41[16:3],,6b/4bV61[16:3],,,,
7-2[16:2],,2/7V52[16:3],,7b/5b,,
3V16[16:3],,3b/1bV36[16:3],,,,
{8}2-5[8:1],8-5[8:1],2V85[8:2],8V25[8:2],2b,,,,
4h[8:4],,,8,8h[8:3],,,6<3[16:5],,,,,{12}7,7,7,3,3,3,
{4}4h[8:6]/8,7,6,5<7[32:3],1>3[32:3],8z4[32:9],4b,,
{8}2b,4h[8:1],5V31[32:5],7b,5,,7b,5h[8:1],4V68[32:5],2,4,,1h[8:3],,
{16}2,3,4,5,
{8}2b,4h[8:1],5V31[32:5],7b,5,,7b,5h[8:1],4z8[32:8],3,2V46[16:3],,,,,
{16}8,2,6-1[8:1],,5,,4,,3-8[8:1],,4,,5,,
6pp1[32:12],,,,,,2,,3,,4h[8:1],,8,7,6,5,84,1,2,3,
4>1[8:1],,7,,6,,5<8[8:1],,4,,3,,2b,,,,
7,5,6,2,4,3,
6,5,7,3,4,2,
5,4,6,5,
{8}7bv5[8:1],5V71[32:6],4,3b,2,,2bv4[8:1],4V28[32:6],5,6b,7,{16}7,6,
{12}53,,68,,13,,
{8}7b-4[8:1],4V68[32:6],3,2b,1,,3b-8[8:1],8V24[32:6],7,6bz2[16:5],5,,,,,
{16}1,1,{8}8h[8:3],2,3,4h[8:3],5,6,7,1,2,3h[8:2],6,7h[8:3],
2,3,4z8[8:6],5,6,,,,,,,,8z4[32:5]*z4[32:5]/4,,,,{16}3,4,2,5,1,6,8,7,
{4}1pp4[8:5],,,,5<8[16:3],,1-4[16:3],,
8qq5[8:5],4,4,4,4>1[16:3],1,8-5[16:3],5,
{8}4-1[8:1],4,7-2[8:1],7,3-6[8:1],3,8-5[8:1],8,
2-5[8:1],2,6-1[8:1],6,3,3,7,7,
{16}4,6,4,6,2,4,2,4,2,8,2,8,5,6,5,6,3,4,2,5,1,6,8,7,
{32}1,2,3,4,5,6,7-3[8:1],8,1,2,3-7[16:2],4,5,6,7,8,
{16}1b,,,,,,4,,{12}35,,68,,13,,{16}
4b-1[8:1]/5b-8[8:1],,,,,,,,
{16}7,3,7,3,{32}7-3[8:1],8,1,2,3,4,5,6,
{16},,,,24,,6,5,7h[8:1],,3,4,2<7[8:1],,3,4,2>5[8:1],,,,2/6-2[32:4],,,,6/1V35[32:6],,,,18,,7,,
6h[8:1],,3,4,2h[8:1],,7,5,6,,6,5,7-3[8:1],,,,7/3<6[8:1]*>8[8:1],,,,,,,,
7>2[32:4],,56,,7,,,,3h[8:1],,6,5,7h[8:1],,2,4,3,,3,4,2-6[8:1],,,,6pp6[8:2]/2pp2[8:2],,,,,,,,
,,,,17,,62,,3/5,,
{32}6,,4,,7h[8:1],,,,3,,5,,2h[8:1],,,,6,,4,,8h[8:1],,,,3,,5,,1-5[32:4],,,,{16},,1/6q3[32:6]*<4[32:8],,,,
{24}6b,,,,,,{4},
{8}1-4[8:1],,1-6[32:4],6V41[16:3],1b,,
7-1[32:3],,4-1[32:4]/7-4[16:2],,7b/4b,,
8-5[8:1],,8-3[32:4],3V58[16:3],8b,,
2-5[32:4],,8-5[32:4]/2-8[32:3],,2b/8b,,
{8}7-4[8:1],4-7[8:1],7-2[8:1],2-7[8:1]*V47[16:3],,,,,
8h[8:4],,,4,4h[8:3],,,2>7[16:5],,,,,{12}1,1,1,5,5,5,
{4}6h[8:6]/2,3,4,5>1[32:8],1<5[32:8],5p1[32:8],8h[8:4],,{2}4b>4[4:19],,,,,,,,,,
