&title=雑踏、僕らの街
&artist=トゲナシトゲアリ
&first=0
&des=reflectW
&lv_5=13
&inote_5=(171)
{1},
{16},,,,,,,,,,45,,36,,27,,1s5[8:12]/8pp6[8:12],,,,,,,,,,,,,,,,,,,,,,,,,,,,,,,,
{16}24,,,37,,,64,,,15,,,28,,3,,
46,,,17,,,28,,,13,,,64,,7,,
28,3,4,5,6,7,8,1,2,3,4,5,6,7,8,1,
27,6,5,4,3,2,1,8,7,6,5,4,3,2,1,8,
37,4,5,6,7,8,1,2,3,4,5,6,7,8,1,2,
3s7[8:12]/7s3[8:12],,,,,,,,,,,,,,,,
,,,,,,,,,,,,,,,,
2,4,3,5,4,6,5,7,2,4,3,5,4,6,5,7,
2,1,2,1,4,5,4,5,8,7,8,7,3,5,4,6,
2,4,2,4,3,5,3,5,4,6,4,6,5,7,5,7,
1,2,3,5,6,7,2,3,4,6,7,8,1,2,3,4,
5b/1bpp1[4:2],,,,,,,,7,,,,6,,,,
3,,,,4,,,,8qq8[4:2],,,,,,,,
2,,,,3,,3,5,,5,4,,4,,6,,
7bqq4[4:2],,,,,,,,2,,,,3,,,,
5,,,,6,,,,2qq5[4:2],,,,,,,,
7,,,,6,,6,4,,4,5,,5,,3,,
{16}27,,,,3v8[16:3],,3,,,,4q8[16:3]*v1[16:3],,4,,,,
{16},,,,7-5[8:1],,7,,4-8[8:1],,,,1-3[8:1],,1,,
{16},,7,,8v6[16:3]/4v2[16:3],,,,,,,,,,6,,
{16}74,,,,6^1[16:3],,6,,,,5q1[16:3]*v2[16:3],,5,,,,
{16},,,,2-4[8:1],,2,,5-1[8:1],,,,8-6[8:1],,8,,
{16},,1,,1-5[8:1],,,,,,,,4^1[8:1]/6^1[8:1],,,,
{16},,,,7h[4:1],,,,4,,,,2h[4:1],,,,
{16}5,,,,7h[64:1],,6,,5h[64:1],,7,,3h[64:1],4h[64:1],,2,
{16},,3/4,,5h[4:1]/2,,,,1,,,,4h[4:1]/7,,,,
{16}8,,,,2h[64:1],,3,,4h[64:1],,5,,6h[64:1],5h[64:1],7,4,
{16}8,,2h[8:1],,4h[8:1],,3,4,,1-4[8:1],8,,,,7h[8:1],,
{16}5h[8:1],,6,5,,8-6[8:1],1,,,,3h[8:1],,5h[8:1],,4,6,
{16},2v5[8:1],8,,,,6h[8:1],,4h[8:1],,5,3,,7,1,,
{16}26,,48,,26,,4/8h[2:1],,1,,1,,1,,1,,
{16}4,5,3,6,1-6[8:1],,2,,1b/3V52[4:1],,,,,,7,,
{16}7,,1,8,1-5[8:1]*-4[8:1],,27,,1b,,,,,,6,,
{16}1^4[8:1],,4^7[8:1],,1qq5[8:3],,,,1b,,,,2,,,4,
{16}6,,,8,3V51[4:1],,8-6[8:1],,3,,8,,,,3-1[8:1],,
{16}7-5[8:1]/1-5[8:1],,3,,7b,,,,1,2,8,7,2-8[12:1],3,7-3[8:1],6,
{16}5-1[8:1],,,,,,,,8,7,1,2,7-1[12:1],6,2-6[8:1],3,
{16}4-8[8:1],,,,,,,,{4}5b<8[8:1]/1,{32}1,2,3,4,1,2,3,4,
{16}5<8[8:1],,,,{32}1,2,3,4,1,2,3,4,{16}5<8[8:1],,,,{32}1,2,3,4,{16},,
{16}8,1,7,2,8-3[8:1],,7,,8b/6V47[4:1],,,,,,2,,
{16}2,,8,1,8-4[8:1]*-5[8:1],,72,,8b,,,,,,3,,
{16}8^5[8:1],,5^2[8:1],,8pp4[8:3],,,,8b,,,,7,,,5,
{16}3,,,1,6V48[4:1],,1-3[8:1],,6,,1,,,,6-8[8:1],,
{16}2-4[8:1]/8-4[8:1],,6,,2b,,,,1,2,8,7,2-8[12:1],3,7qq5[8:1],6,
{16}5pp7[8:1]*qq3[8:1],,,,,,,,8,7,1,2,7-1[12:1],6,2pp4[8:1],3,
{16}4qq2[8:1]*pp6[8:1],,,,,,,,5/1^4[32:3],,,,{32}5,6,7,8,5,6,7,8,
{16}1^4[8:1],,,,{32}5b,6,7,8,5,6,7,8,{16}1>4[8:1],,,,{32}5b,6b,7b,8b,5,6,7,8,
{16}1,,4b/6b,,1b/7b,,3b/5b,,8b/2b,,2,4,,4,5,,
{16}5,7,,7,1,,1,5,{24}2p5[16:3],,,{16},5v3[16:2],,,6b,,
{16},,4,,6,5,6,,1b/7b,,7,5,,5,4,,
{16}4,2,,2,8,,8,4,{24}7q4[16:3],,,{16},4v6[16:2],,,3b,,
{16},,5,,3,4,3,,2b,,6,5b/6b,,3,3b/4b,,
{16}7,7b/8b,,2,{24}1b/2b,,,{16},,35,,2,1b/3b,,7,6b/8b,,
{16}3,2b/4b,,6,5b/7b,,18,,2,3,4,6,7,8,3,4,
{16}5,7,8,1,4,5,6,3s7[8:12]/7s3[8:12],,,,,,,,,
,,,,,,,,,,,,,,,,,,,,,,,,
{24}16,,,{16}74,,{24}25,,,{16}38,,{24}12,,,65,,,34,,,87,,,
{16}1,1,{16}2,2,{16}3,3,{16}4,4,{16}5,5,6,6,7,7,8,8,
{16}1b-4[16:1],,,6b^1[16:1],,,5bv3[16:1],,,2b-6[16:1],,,4b-1[16:1],,,7bv5[16:1],
{16},,{16}8b^3[16:1],,,6b-1[16:1],,,4bv2[16:1],,,8b-5[16:1],,,3bp2[2:1]*>4[2:1],,,,,,,,,,,,,,
&inote_6=(171)
{1},
{24}1x,8x,1x,8x,1x,8x,1x,8x,1x,8x,1x,8x,1x,8x,1x,8x,1x,8x,1x,8x,1x,8x,1x,8x,
1x,8x,1x,8x,1x,8x,1x,8x,1x,8x,1x,8x,1x,8x,1x,8x,1x,8x,1x,,,,,,
{16}24,,,37,,,64,,,15,,,28,,3,,
46,,,17,,,28,,,13,,,64,,7,,
2x/8x,3,4,5,6,7,8,1,2,3,4,5,6,7,8,1,
2x/7x,6,5,4,3,2,1,8,7,6,5,4,3,2,1,8,
3x/7x,4,5,6,7,8,1,2,3,4,5,6,7,8,1,2,
3xs7[8:12]/7xs3b[8:12],,,,,,,,,,,,,,,,
,,,,,,,,,,,,,,,,
2,4,3,5,4,6,5,7,2,4,3,5,4,6,5,7,
2,1,2,1,4,5,4,5,8,7,8,7,3,5,4,6,
2,4,2,4,3,5,3,5,4,6,4,6,5,7,5,7,
1,2,3,5,6,7,2,3,4,6,7,8,1,2,3,4,
5b/1bxpp1[4:2],,,,,,,,B7,,,,B6,,,,
B3,,,,B4,,,,8qq8b[4:2],,,,,,,,
2,,,,3,,3,5,,5,4,,4
,,6,,
8xbp4p8[4:2],,,,,,,,A3,,,,A2,,,,
A6,,,,A5,,,,4q8q4b[4:2],,,,,,,,
7,,,,6,,6,4,,4,5,,5,,3,,
{16}27,,,,3v8[16:3],,3,,,,4q8[16:3]*v1[16:3],,4,,,,
{16},,,,7-5[8:1],,7,,4-8[8:1],,,,1-3[8:1],,1,,
{16},,7,,8v6[16:3]/4v2[16:3],,,,,,,,,,6x,,
{16}74,,,,6^1[16:3],,6,,,,5q1[16:3]*v2[16:3],,5,,,,
{16},,,,2x-4[8:1],,2,,5-1[8:1],,,,8-6[8:1],,8,,
{16},,1,,1-5[8:1],,,,,,,,4-2^1[8:1]/6-8^1[8:1],,,,
{16},,,,7h[4:1],,,,4,,,,2h[4:1],,,,
{16}5,,,,7h[64:1],,6,,5h[64:1],,7,,3h[64:1],4h[64:1],,2,
{16},,3/4,,5h[4:1]/2,,,,1,,,,4h[4:1]/7,,,,
{16}8,,,,2h[64:1],,3,,4h[64:1],,5,,6h[64:1],5h[64:1],7,4,
{16}8,,2h[8:1],,4h[8:1],,3,4,,1-4[8:1],8,,,,7h[8:1],,
{16}5h[8:1],,6,5,,8-6[8:1],1,,,,3h[8:1],,5h[8:1],,4,6,
{16},2v5[8:1],8,,,,6h[8:1],,4h[8:1],,5,3,,7,1,,
{16}26,,48,,26,,4/8h[2:1],,E2,,E2,,E2,,E2,,
{16}4,5,3,6,1-6[8:1],,2,,1bx/3V52[4:1],,,,,,7,,
{16}7,,1,8,1-5[8:1]*-4[8:1],,27,,1bx,,,,,,6,,
{16}1^4[8:1],,4^7[8:1],,1qq5[8:3],,,,1b,,,,2,,,4,
{16}6,,,8,3V51[4:1],,8-6[8:1],,3,,8,,,,3-1[8:1],,
{16}7-5[8:1]/1-5b[8:1],,3,,7b,,,,1x,2,8x,7,2x-8[12:1],3,7x-3[8:1],6,
{16}5-1b[8:1]
,,,,,,,,8x,7,1x,2,7x-1[12:1],6,2x-6[8:1],3,
{16}4-8b[8:1],,,,,,,,{4}5bx<8[8:1]/1x,{32}1,2,3,4,1x,2x,3x,4x,
{16}5x<8[8:1],,,,{32}1,2,3,4,1x,2x,3x,4x,{16}5x<8[8:1],,,,{32}1,2,3,4,{16},,
{16}8x,1,7,2,8-3[8:1],,7,,8bx/6V47[4:1],,,,,,2,,
{16}2,,8,1,8-4[8:1]*-5[8:1],,72,,8bx,,,,,,3,,
{16}8^5[8:1],,5^2[8:1],,8pp4[8:3],,,,8b,,,,7,,,5,
{16}3,,,1,6V48[4:1],,1-3[8:1],,6,,1,,,,6-8[8:1],,
{16}2-4[8:1]/8-4b[8:1],,6,,2b,,,,1x,2,8x,7,2x-8[12:1],3,7xqq5[8:1],6,
{16}5pp7b[8:1]*qq3[8:1],,,,,,,,8x,7,1x,2,7x-1[12:1],6,2xpp4[8:1],3,
{16}4qq2b[8:1]*pp6[8:1],,,,,,,,4x/1x^4[32:3],,,,{32}5,6,7,8,5x,6x,7x,8x,
{16}1x^4[8:1],,,,{32}5,6,7,8,5x,6x,7x,8x,{16}1x>4[8:1],,,,{32}5,6,7,8,5x,6x,7x,8x,
{16}1x,,4b/6b,,1b/7b,,3b/5b,,8b/2b,,2,4,,4,5,,
{16}5,7,,7,1,,1,5,{24}2p5[16:3],,,{16},5v3[16:2],,,6b,,
{16},,4,,6,5,6,,1b/7b,,7,5,,5,4,,
{16}4,2,,2,8,,8,4,{24}7q4[16:3],,,{16},4v6[16:2],,,3b,,
{16},,5,,3,4,3,,2b,,6,5b/6b,,3,3b/4b,,
{16}7,7b/8b,,2,{24}1b/2b,,,{16},,35,,2,1b/2b,,7,7b/8b,,
{16}3,3b/4b,,6,5b/6b,,71,,2,3,4,6,7,8,3,4,
{16}5,7,8,1,4,5,6,3s7[8:12]/7s3b[8:12],,,,,,,,,
,,,,,,,,,,,,,,,,,,,,,,,,
{24}16,,,{16}74,,{24}25,,,{16}38,,{24}12,,,65,,,34,,,87,,,
{16}1,1,{16}2,2,{16}3,3,{16}4,4,{16}5,5,6,6,7,7,8,8,
{16}1bx-5[16:1],,,6bx-1b[16:1],,,4bx-8[16:1],,,2bx-6b[16:1],,,1bx-4[16:1],,,5bx-8b[16:1],
{16},,{16}3bx-6[16:1],,,1bx-5b[16:1],,,7bx-4[16:1],,,6bx-1b[16:1],,,3bxp2[2:1]*>4b[2:1],,,,,,,,,,,,,,
&inote_7=(171)
{1},
{24}1,8,1,8,1,8,1,8,1,8,1,8,1,8,1,8,1,8,1,8,1,8,1,8,
1,8,1,8,1,8,1,8,1,8,1,8,1,8,1,8,1,8,1,,,,,,
{16}24,,,37,,,64,,,15,,,28,,3,,
46,,,17,,,28,,,13,,,64,,7,,
28,3,4,5,6,7,8,1,2,3,4,5,6,7,8,1,
27,6,5,4,3,2,1,8,7,6,5,4,3,2,1,8,
37,4,5,6,7,8,1,2,3,4,5,6,7,8,1,2,
3s7[8:12]/7s3[8:12],,,,,,,,,,,,,,,,
,,,,,,,,,,,,,,,,
2,4,3,5,4,6,5,7,2,4,3,5,4,6,5,7,
2,1,2,1,4,5,4,5,8,7,8,7,3,5,4,6,
2,4,2,4,3,5,3,5,4,6,4,6,5,7,5,7,
1,2,3,5,6,7,2,3,4,6,7,8,1,2,3,4,
5b/1bpp1[4:2],,,,,,,,7,,,,6,,,,
3,,,,4,,,,8qq8[4:2],,,,,,,,
2,,,,3,,3,5,,5,4,,4,,6,,
8bs4[4:2],,,,,,,,3,,,,2,,,,
6,,,,5,,,,4s8[4:2],,,,,,,,
7,,,,6,,6,4,,4,5,,5,,3,,
{16}27,,,,3v8[16:3],,3,,,,4q8[16:3]*v1[16:3],,4,,,,
{16},,,,7-5[8:1],,7,,4-8[8:1],,,,1-3[8:1],,1,,
{16},,7,,8v6[16:3]/4v2[16:3],,,,,,,,,,6,,
{16}74,,,,6^1[16:3],,6,,,,5q1[16:3]*v2[16:3],,5,,,,
{16},,,,2-4[8:1],,2,,5-1[8:1],,,,8-6[8:1],,8,,
{16},,1,,1-5[8:1],,,,,,,,4^1[8:1]/6^1[8:1],,,,
{16},,,,7h[4:1],,,,4,,,,2h[4:1],,,,
{16}5,,,,7h[64:1],,6,,5h[64:1],,7,,3h[64:1],4h[64:1],,2,
{16},,3/4,,5h[4:1]/2,,,,1,,,,4h[4:1]/7,,,,
{16}8,,,,2h[64:1],,3,,4h[64:1],,5,,6h[64:1],5h[64:1],7,4,
{16}8,,2h[8:1],,4h[8:1],,3,4,,1-4[8:1],8,,,,7h[8:1],,
{16}5h[8:1],,6,5,,8-6[8:1],1,,,,3h[8:1],,5h[8:1],,4,6,
{16},2v5[8:1],8,,,,6h[8:1],,4h[8:1],,5,3,,7,1,,
{16}26,,48,,26,,4/8h[2:1],,1,,1,,1,,1,,
{16}4,5,3,6,1-6[8:1],,2,,1b/3V52[4:1],,,,,,7,,
{16}7,,1,8,1-5[8:1]*-4[8:1],,27,,1b,,,,,,6,,
{16}1^4[8:1],,4^7[8:1],,1qq5[8:3],,,,1b,,,,2,,,4,
{16}6,,,8,3V51[4:1],,8-6[8:1],,3,,8,,,,3-1[8:1],,
{16}7-5[8:1]/1-5[8:1],,3,,7b,,,,1,2,8,7,2-8[12:1],3,7-3[8:1],6,
{16}5-1[8:1],,,,,,,,8,7,1,2,7-1[12:1],6,2-6[8:1],3,
{16}4-8[8:1],,,,,,,,{4}5b<8[8:1]/1,{32}1,2,3,4,1,2,3,4,
{16}5<8[8:1],,,,{32}1,2,3,4,1,2,3,4,{16}5<8[8:1],,,,{32}1,2,3,4,{16},,
{16}8,1,7,2,8-3[8:1],,7,,8b/6V47[4:1],,,,,,2,,
{16}2,,8,1,8-4[8:1]*-5[8:1],,72,,8b,,,,,,3,,
{16}8^5[8:1],,5^2[8:1],,8pp4[8:3],,,,8b,,,,7,,,5,
{16}3,,,1,6V48[4:1],,1-3[8:1],,6,,1,,,,6-8[8:1],,
{16}2-4[8:1]/8-4[8:1],,6,,2b,,,,1,2,8,7,2-8[12:1],3,7qq5[8:1],6,
{16}5pp7[8:1]*qq3[8:1],,,,,,,,8,7,1,2,7-1[12:1],6,2pp4[8:1],3,
{16}4qq2[8:1]*pp6[8:1],,,,,,,,4/1^4[32:3],,,,{32}5,6,7,8,5,6,7,8,
{16}1^4[8:1],,,,{32}5,6,7,8,5,6,7,8,{16}1>4[8:1],,,,{32}5,6,7,8,5,6,7,8,
{16}1,,4b/6b,,1b/7b,,3b/5b,,8b/2b,,2,4,,4,5,,
{16}5,7,,7,1,,1,5,{24}2p5[16:3],,,{16},5v3[16:2],,,6b,,
{16},,4,,6,5,6,,1b/7b,,7,5,,5,4,,
{16}4,2,,2,8,,8,4,{24}7q4[16:3],,,{16},4v6[16:2],,,3b,,
{16},,5,,3,4,3,,2b,,6,5b/6b,,3,3b/4b,,
{16}7,7b/8b,,2,{24}1b/2b,,,{16},,35,,2,1b/2b,,7,7b/8b,,
{16}3,3b/4b,,6,5b/6b,,71,,2,3,4,6,7,8,3,4,
{16}5,7,8,1,4,5,6,3s7[8:12]/7s3[8:12],,,,,,,,,
,,,,,,,,,,,,,,,,,,,,,,,,
{24}16,,,{16}74,,{24}25,,,{16}38,,{24}12,,,65,,,34,,,87,,,
{16}1,1,{16}2,2,{16}3,3,{16}4,4,{16}5,5,6,6,7,7,8,8,
{16}1b-5[16:1],,,6b-1[16:1],,,4b-8[16:1],,,2b-6[16:1],,,1b-4[16:1],,,5b-8[16:1],
{16},,{16}3b-6[16:1],,,1b-5[16:1],,,7b-4[16:1],,,6b-1[16:1],,,3bp2[2:1]*>4[2:1],,,,,,,,,,,,,,
