&title=MegiddØ
&artist=BlackY VS 大國奏音
&first=0
&des=MargineR the DARK
&lv_5=14+
&inote_5=(180){4},,,,,(360){64},,,,,,,,,,,
(180){32}1x,8x,1x,8x,1x,8x,1x,8x,2x,7x,2x,7x,2x,7x,2x,7x,
{4}2x-6-4-2[2:1],,,
{8}8qq4[2:1],,,,,,
{8}3-5-7-1[2:1],,,,,,
{12}7-3[8:1],,5,,5-2[8:1],,1,8,7,
{8}6pp2[2:1],,,,,,
{8}4-6-1-3[2:1],,,,,,
{8}8<5[8:1],,{16}4,3,2,4,3,2,1,8,74,3,2,1,87,6,5,4,8,1,2,3,
{8}4-1[6:1],5,6,7<4[6:1],8,1,2-8[8:1],3,4,5-1[8:1],6-8[8:1],5,6,2,1,8v3[8:1],7,6,5q1[8:1],4,
{8}3,2,2,2,
{16}15,,3,4,3,,84,,6,5,6,,
{16}2,1,2,1,2,1,3,8,3,8,3,8,
{16}2,3,4,5,1,2,3,4,8,1,2,3,
{24}7,8,7,8,7,8,7,8,7,8,7,8,7,8,7,8,7,8,
{4}7x<7[1:1],,,,,,Cf,,
{16}7-5[8:1]/1,,,,7-3[8:1],,4,,7-5[8:1],,5-1[8:1],,7,,,,
{16}3,,3,,3-5[8:1],,3-1[8:1],,3-7[8:1],,,,,,,,
{32}1bx,2x,3bx,4x,1x,2bx,3x,4bx,{16}1bx,1x,1bx,1x,1bhx[8:1],,,,
{32}8bx,7x,6bx,5x,8x,7bx,6x,5bx,{16}8bx,8x,8bx,8x,7x/1x,,8x,7x/1x,,,{24}71,62,53,4,,,,,,
{16}2-4[8:1]/8,,,,2-6[8:1],,5,,2>4[8:1],,4-8[8:1],,2,,,,
{16}7<6-4[8:1],,7,,1>2-4[8:1],,1,,5,,6,,7h[8:1],,8b,,,,
3h[8:1],,5h[8:1],,3h[4:1],,8b,,
6h[8:1],,4h[8:1],,5b-1[8:1],,,,2-6[6:1]/5,3,4,,,2b,,,1b<6[8:1],,,,,,
3b,,,,,,1b,1b,{24}1bh[8:1],,,8,7,6,5/1bh[8:1],,,7,6,5,4/1b,,,1,2,3,4/8bh[8:1],,,2,3,4,5/8h[8:1]b,,,1,2,3,4/8bh[8:1],,,2,3,4,
5/7b,6,5,4,3,2,1,8,7,6,5,4,1b,2,3,4,5,6,7,8,1,2,3,4,8b,7,6,2b,3,4,8b,7,6,2b,3,4,
1,2,1,2,1,2,1,2,1,2,,,{16}8b-4[8:1],,2b-5[8:1],,8b,,2b,,7,7,4,4,6,6,3b-8[8:1],,,,3/7b-4[8:1],,,,2b>5[8:1]/7,,,,2/6b<1[8:1],,,,,,
{8}4qq8pp4[1:3],,5,,6,,7,7,,,8,,7,,6,,E5,,B5,,B6,,E7,,A7,,E7,,B6,,B5,,
{8}5p8>1p4<6[1:3]b,,4,,3,,2,2,,,1,,2,,3,,E5,,B4,,B3,,E3,,2xh[2:1],,,,Cf,,,,
{8}6h[8:3]/3,,,5h[8:3],3x,,4h[8:2],,2h[8:3],,4,4h[8:3],5x,,3,,
{32}8<5[8:1]/2,,,,,,,,5,4,3,2,1-5[8:1]b,,,,,,,,1>2>3<4<5<6<7>8>1>2[8:7],,,,{8},1h[8:7],,,,,,,,,
{8}3,3,42,42,5,5,42,42,6,6,57,57,4,4,57,57,
46,,{24}3,4,3,4,3,4,3,4,3,4,3,4,3h[8:1],,,,,,{16}8,7,6,4,8,1,2,4,{32}8,7,6,5,4,3,2,1,{8}84,,
{16}1-5[8:1]b,,,6-4[16:1],,,6-1[8:1],,,,,,3-8[16:1]b,,,7-4[16:1],,,2-5[8:1]b,,,6-2[8:1],,,1s5[4:1]b,,,1b,,,,,
{24}A8,D8,A7,D7,A6,D6,{12}A5f/3,2,1,8,8,8,8,{24}1,2,3,4,
{12}5v2[16:1]b,,8>3[16:1],,7-3-7[4:1]b,,Cf,,,,,,
{24}A4,D4,A3,D3,A2,D2,A1f/5-7[16:1]*-3[16:1],,,,,,
{16}5-1[16:1]b,,,2-6[16:1],,,8-4[16:1]b,,,,,,5-2[16:1],,,1-6[16:1]b,,,3>8[16:1],,,7<4[16:1]b,,,7b,,,,1,5,1,5,
{24}2,3,4,1,2,3,8,1,2,7,8,1,
{8}6<2[8:3],,,2>6[8:3]b,,Cf,,,{24},,,,,,
2b/E1/B8,3x,4x,,2b/E8/B7,3x,4x,,1b/E7/B6,2x,3x,,
{32}1b/E6/B5,2x,3x,,,,1b/E5/B4,8,7,,,,1b/E4/B3,8,7,,,,8b/E3/B2,7,6,,,,8b/E2/B1,7,6,,,,2b-6-2[6:1]b,3,4/B5/E6/E7/A6/B6f,,,,,,,,,,,,,,,,
{24}7b/E1/B1,6x,5x,,7b/E2/B2,6x,5x,,8b/E3/B3,7x,6x,,
{32}8b/E4/B4,7x,6x,,,,8b/E5/B5,1,2,,,,8b/E6/B6,1,2,,,,1b/E7/B7,2,3,,,,1b/E8/B8,2,3,,,,7b-3-7[6:1]b,6,5/B4/E4/E3/A3/B3f,,,,,,,,1xw5[8:1],,,,,,,,,,,,,,,,
5x,4x,2x,3x,5x,4x,2x,3x,6x,5x,1x,2x,6x,5x,1x,2x,
{24}7x,8x,1x,7x,8x,1x,{16}6x,2x,6x,2x,
{12}4x,4x,5x,5x,6x,6x,{16}6xp4[4:6]/4x,,,,,,,,,,,,,,3,2,1,,,,1-5[8:1]b,,,,1,,,,,,,,
{8}3x>7>3[4:6]/4h[8:1],,4h[8:1],,5h[8:1],,5h[8:1],,6h[8:1],,6h[8:1],,5h[8:1],,5h[8:1],,
{16}5,6,7,8,6,7,8,1,7,8,1,2,8,1,2,3,4h[2:1]/8b,,,,,,,,,,,,,,,,
{4}4w8[2:1],,,,{32}3,4-8[8:1]b,,,{8},,,4w8[8:1],,,,
{16}6bv1[8:1]/2,,2>5[12:1],,6<1[12:1],,2,,,,4,,3,,2q6[8:1],,,,1q5[8:1],,,,8q4[8:1],,,,6h[8:3]/8,,,,7>4[4:1],,7,,,,,,8q5<6-2[2:1],7,6h[4:1],,,,,,,,8b-6[16:1]b*-4[16:1]b,,,,,,,,6,5,7,4,6,5,6,,74,,1<6[8:1]*>4[8:1],,82,,1bw5[8:1],,,,1bV73[8:1],,,,1b,,,,
5,6,7,8,2,3,4,5,7,1,7,8-2-4[4:1],7,,6,,6,,6,,6,,
75,4,73,2,71,2,73,4,6,5,7,4,8,3,7,4,1,2,1,2,1,2,1,2,
1b<5[8:1],,3v8[8:1],,1,,3,,,,6,7,1,2,6,7,83,,4/6-1[12:1],,53,,6/2v5[8:1],,3,,82,,7,,7,,
{32}81,,,,8/1h[8:1],7,6,5,4,,,,,,,,{32}1/7,,,,1/7h[8:1],2,3,4,5,,,,,,,,
{32}6/5,,,,6/5h[8:1],7,8,1,2,,,,,,,,{32}4/6,,,,4/6h[8:1],3,2,1,8,,,,,,,,
{16}4b/7b,,2-6-4[6:1]/8,,1,,2/8h[8:1],,,,8,,82,,,,71,6,5,4,8,7,6,5,2,3,4,5,1,2,3,4,
57,,7,,71,,1,,15,,5,,53,,3,,6,6,5,5,3,3,4,4,7,6,51,2,3/8-4[16:1],7,62,3,4,,,,
6,5,6,5,7,4,7,4,8,7,6,5,14,,2,2,5,3,5,3,6,7,8,1,4,3,2,1,
7b-4[8:1]/8,,,8,7,,1,,2b-5[8:1],,,1,2,,8,,
{32}7b,,,,1,2,3,4,8b,,,,2,3,4,5,7b,,,,1,2,3,4,6b,,,,2,3,4,5,
{16}8b,,2,4,2,3,2,1,2,8,2,7,2,3,4,5,8b/6,,8,5,8,6,8,7,8,1,8,2,7,3,6,4,
5v2[8:1],,,6,5,,B6/E7,,4v7[8:1],,,3,4,,B3/E3,,
{32}1,2,3,,7,,7,,2,3,4,,6,,6,,3,4,5,,8,,8,,2,3,4,,7,,7,,
2b,,1,,2,,1,,2,3,4,5,,,,,7b,,8,,7,6,5,,1b,,8,,1,2,3,,
{32}7,6,5,,2,,2,,8,,8,,2,3,4,,7,,7,,3,,3,,5,6,7,8,4,3,2,1,
{64}8q2<4[1:3],7xp5<3[1:3]b,,,,,,,,,,,,,,,{1},,,{4},,,
{4}5p2[2:1],,C,,6p3[2:1],,C,,7p4[2:1],,C,,
{8}35,3,7,7,1,1,6,6,
{16}2,5,2,5,
{32}2,,4,3,4,,2,,
{32}5,6,7,8,1,2,3,4,51,,,,,,,,
{32}8h[32:3]/2b,3,4,,,,8h[32:3]/2b,3,4,,,,8h[32:3]/3b,4,5,,,,,,,,,,
{16}2x-5[16:1],,,2/6x-1[16:1],,,6/3x-8[16:1],,,3/7x-4[16:1],,,1x-7[16:1]*-3[16:1]/7,,,1x,,,,,
{32}1h[32:3]/7b,6,5,,,,1h[32:3]/7b,6,5,,,,1h[32:2]/6b,5,4,,
{24}2,3,4,5,6,7,85,4,3,2,1,8,
{16}7/3h[8:3],,6x,,,5x,5h[4:1],,2x,,1h[4:1],8x,,,,,
{32}7h[32:3]/1b,2,3,,,,7h[32:3]/2b,3,4,,,,7h[32:3]/3b,4,5,,,,,,,,,,
{16}6x-1[16:1],,,6/2x-5[16:1],,,2/7x-4[16:1],,,7/3x-8[16:1],,,5x-3[16:1]*-7[16:1]/3,,,5x,,,,,
{32}2h[32:3]/8b,7,6,,,,2h[32:3]/7b,6,5,,,,2h[32:3]/6b,5,4,,,,,,,,,,0
{16}7x,8,6,1x,7,8,5x,2,4,3x,5,2,1x,2,8,3x,6,5,7x,4,
{24}8/3x,7,6,5x,8,7,6x,5,8,7x,6,5,8x,1,2,3x,8,1,2x,3,8,1x,2,3,
{12}5,6/4,6/4,7/3,7/3,82,
{32}71,2,3,4,,7,6,5,4,3,2,1,8,73,62,51,
{1}4b/8b<5>1<5[1:4],1b-5[1:3]b,
