&title=金野火織の金色提言
&artist=DJ TECHNORCH feat. 宇宙★海月
&first=0
&des=Tail_R
&lv_5=13
&inote_5=(225.001)
{1},{32},,,,
(225)
{1}4hx[4:7]/5hx[4:7],
{1},
{16},,,,,,,,,,7x^2v4b[16:13],,,,,,
{1},
{8}3/5,,3/5,,4,4,6,,
{8}7/5,,6,6,,4,4,,
{8}3/5,,3/5,,4,4,6,,
{8}7/5,,6,6h[2:1],,1x,1x,1x,
{8}3/5,,3/5,,4,4,6,,
{8}7/5,,6,6,,4,4,,
{8}2h[8:1]/8h[8:1],,3h[8:1]/7h[8:1],,4h[8:1]/6h[8:1],,5h[8:1],,
{8}4/6,8x,7/5,1x,3h[8:3],1x,8x,7x,
{8}6/4,,6/4,,5,5,3,,
{8}2/4,,3,3h[8:3],,1,8,7,
{8}3/5,,3/5,,4,4,6,,
{8}7/5,,6,6h[8:3],,8,1,2,
{8}3x/5x,6,7,8,1x/2x,3,4,5,
{8}6x/7x,8,1,2,3x/4x,5,6,7,
{8}4bqq1[2:1]/8bxqq5[2:1],,,,,,,,
{8}2b/6b,2b/6b,3b/7b,3b/7b,4b/6b,2b/8b,E3/Cf/E7/B7/B3,,
{8}1-6[8:1]/2-5[8:1],,1/2,,4/7,4/7,3/8,3/8,
{8}2-4-1-5[8:3]/1,,8,8,,7,7,,
{8}5-2[8:1]/6-1[8:1],,5/6,,3/8,3/8,4/7,4h[2:1]/7,
{8}6,7,8,1-5b[8:1],,4b,4b,,
{8}1-7[8:1]/2-6[8:1],,1/2,,5/8,5/8,4/7,4/7,
{8}3-8-2-5[8:3]/6,,7,7,,6,6,,
{8}5-3[8:1]/6-2[8:1],,5/6,,4/1,4/1,3/8,3/8,
{8}7,6pp5b[8:3],4qq5b[4:1],6,4,,,,
{8}2x-4[8:1]/1x-5[8:1],,2/1,,3/6,3/6,2/7,2/7,
{8}1/8-3-1-4[8:3],,7,7,,6,6,,
{8}6-8[8:1]/5-1[8:1],,6/5,,2/7,2/7,3/6,3/6,
{8}5,6,7V53b[4:1],1,1,,C,,
{8}1-6[8:1]/2-5[8:1],,1/2,,4/7,4/7,3/8,3/8,
{8}2-8-3-7[8:3]/1,,7,7,,6,6,,
{8}5-2[8:1]/6-1[8:1],,5/6,,3/8,3/8,4/7,4/7,
{8}6-2b[8:1],4-8b[8:1],6V41[16:5]*V83[16:5],4,,,,,
{1}1bx<4v2b[2:1],
{8}4h[4:1],,6h[4:1],,{16}8,1,2,3,{8}4,6hx[8:3]/5x,
{8},,4h[4:1],,{16}2,1,8,7,{8}6,4x/5x,
{8}3h[4:1],,1h[4:1],,{16}7,6,5,4,{8}3,1x/2hx[4:1],
{8},8,7,6h[16:7],{32}2bx,3x,{16}4x,,,{32}4bx,3x,{16}2x,,,
{8}5h[4:1],,3h[4:1],,{16}1,8,7,6,{8}5,3hx[8:3]/4x,
{8},,5h[4:1],,{16}7,8,1,2,{8}3,5x/4x,
{8}6h[4:1],,8h[4:1],,{16}2,3,4,5,{8}6,8x/7x,
{8}4b/6b,1,3b/5b,8,5b/7b-3[8:1],,1b/7b,,
{8}2-5[8:1],,5V31[4:1],,{16}1,8,7,6,{8}5,4x/8x,
{8}6-3[8:1],,3V57[4:1],,{16}7,8,1,2,{8}3,8x/4x,
{8}3-8[8:1],,8V24[4:1],,{16}4,5,6,7,{8}8,2x/6x,
{8}7/3,2,6h[16:7]/4,1,{32}2bx,3x,{16}4x,,,{32}4bx,3x,{16}2x,,,
{8}7-4[8:1],,4V68[4:1],,{16}8,1,2,3,{8}4,5x/1x,
{8}3-6[8:1],,6V42[4:1],,{16}2,1,8,7,{8}6,1x/5x,
{8}6-1[8:1],,1V75[4:1],,{16}5,4,3,2,{8}1,7x/3x,
{8}2/6,8,3/5h[16:7],7,{32}1bx,2x,{16}3x,,,{32}3bx,2x,{16}1x,,,
{8}3-8[8:1],,8V24[4:1],,{16}4,5,6,7,{8}8,1x/5x,
{8}7-2[8:1],,2V86[4:1],,{16}6,5,4,3,{8}2,5x/1x,
{8}2-5[8:1],,5V31[4:1],,{16}1,8,7,6,{8}5,3x/7x,
{32}5bxw1b[8:1],4x,3x,2x,1x,8x,7x,6x,{4}5x,,Cf/B7/B3/A7/A3,
{8}6h[4:7]/4,,4,,5,5,3,,
{8}2,,3,3,,5,5,,
{8}3/5,,3/5,,4,4,6h[1:1],,
{1}2bx-4-2-4-2-4-2[2:1],
{8}6/4,,6/4,,5,5,3,,
{8}7^8-5q4[2:1]/4,,2,2,,3,3,,
{8}3x/5x,,3x/5x,,4x,4x,6x,,
{8}6bx/5bx,6bx/5bx,7bx/4bx,7bx/4bx,8bx-4[8:1]/3bx-7[8:1],,,,
{8}6/5,,7/1,,3,3,8,,
{8}7V51[2:1]/4,,1,1,,2,2,,
{8}3/4,,2/8,,6,6,1,1,
{8}2-5[8:1],2,1-6[8:1],1,3-7[8:1]*-8[8:1],,,,
{8}6xpp5[16:5]/5x,,4,,3qq4[16:5],3,6,,
{8}7v4[8:1],,1x,1xv4[8:1],,7x,7x,,
{8}1x-4[8:1]/7-3[8:1],,1x-6[8:1],,1x-4[8:1]/3x-7[8:1],,1x-7b[8:1]*-5b[8:1],,
{8}1x-4b[8:1]*-6b[8:1],,1x-3b[8:1]*-5b[8:1],,1x,,,,
{1}1bx<1[4:14]/8,
{1},
{1},
{1},
{4}3/5,3/5,3/5,3/5,
{4}3^8v5b[2:1]/5,A7/B7,A6/B6,,
{4}4/6,4/6,4/6,4/6,
{8}6bxv4<1b[2:1],,2bx,,3bx,,,,
{4}2h[8:1]/6h[8:1],2h[8:1]/6h[8:1],2h[8:1]/6h[8:1],2h[8:1]/6h[8:1],
{4}2-5-1-4b[2:1]/6,A7/B7,A6/B6,,
{4}7h[8:1]/3h[8:1],7h[8:1]/3h[8:1],7h[8:1]/3h[8:1],7h[8:1]/3h[8:1],
{4}7-3-5-8b[2:1]/3,A1/B1,A2/B2,,
{8}1,1,7,7,1,1,7,7,
{8}1-4[8:1],1,7-3[8:1],7,1-5[8:1],1,7,,
{8}8,8,2,2,8,8,2,2,
{4}8b-4[8:1]/2-4[8:1],2b-6[8:1]/8-6[8:1],8b/2b,Cf,
{8}8bx-5b[8:1]/4bx-1b[8:1],,,,,,5bx-8b[8:1]/1bx>4b[8:1],,,
{8},,8bxv5b[8:1]/4bxv1b[8:1],,,,,
{8}1x,2x,3x,4x,{12}5x,6x,7x,{16}8x,1x,2x,3x,
{24}4x,5x,6x,7x,8x,1x,{32}2x,3x,4x,5x,6x,7x,8x,1x,{4}2x/Cf,3bx/7bx,
{8}1-6b[8:1]/2-5b[8:1],,1/2,,4/7,4/7,3/8,3/8,
{8}2-5-3-8[8:3]/1,,8,8,,7,7,,
{8}5-2b[8:1]/6-1b[8:1],,5/6,,3/8,3/8,4/7,4h[2:1]/7,
{8}8,7,6,5-1b[8:1],,4b,4b,,
{8}1-7b[8:1]/2-6b[8:1],,1/2,,5/8,5/8,4/7,4/7,
{8}3-1-4-8[8:3]/6,,7,7,,6,6,,
{8}5-3b[8:1]/6-2b[8:1],,5/6,,4/1,4/1,3/8,3/8,
{8}2,3qq4b[8:3],5pp4b[4:1],3,5,,,,
{8}2x-4b[8:1]/1x-5b[8:1],,2/1,,3/6,3/6,2/7,2/7,
{8}1/8-2-4-1[8:3],,7,7,,6,6,,
{8}6-8b[8:1]/5-1b[8:1],,6/5,,2/7,2/7,3/6,3/6,
{8}6,7,8-5-3b[4:1],2,2,,C,,
{8}1-6b[8:1]/2-5b[8:1],,1/2,,4/7,4/7,3/8,3/8,
{8}2-7-4-1[8:3]/1,,6,6,,5,5,,
{1}5bxs1b[4:7]/6bxz2b[4:7],
{1},
{2},{16},1x<4v2[16:11],,,,,,,
{4},,{32},,,,,,,4xq1[2:1]`5p8b[2:1],
E
