&title=3分29秒
&artist=ヒトリエ
&first=0
&des=1分30秒
&lv_5=13+
&inote_5=(203){4},,,,{8}2/5,
{16}3,4,{8}3,{16}6,5,{8}6,7/4b,6b/3qq5[1:1],5/2b,
{2}4h[4:1],{8}6,6,,7,
,8,,4h[4:1],,5,{4}5h[4:1],
{8}4>6[2:1],4,,5,,5p1[4:1]*q1[4:1],{4},,,{2}3<6[16:3],
7bqq5[16:3],2bqq8[4:1],
{4}5b<8[8:1],{8}1,1-4[8:1]*-6[8:1],,1,{4},{8}7/2>5[6:1],
{4},{8}1<6[6:1],{4},5-1[6:1],
{8},7-3[6:1],{4},1s5[16:3],1b,
6V48[4:1],{8}6,3,,2,8,1>4[8:1],
,1/6<1[8:1],,5/6,,2,3,4,
{4}6/5>2[8:1],{8}7,7V51[4:1],,2,3,4>1[8:1],
,4/7<4[8:1],,8/7,,1,2,3,
{4}5/4>1[8:1],{8}6,6V48[4:1],,1,2,3<6[8:1],
,3/8>3[8:1],,8/7,,5,6,7,
8/4qq2[16:3],{4},{8}8qq6[16:3],{4},3qq1[16:3],
{8},7<2[8:3],{4},,,1-5[8:3],
1,1,{8}1,5h[4:1],
{4}1,{8}1,4,1,6,1,5,
{4}8-4[8:3],8,8,{8}8,4,
8,5,8,3,8,5,8,4,
,{16}3,4,3,6,5,6,4,5,{8}3,,{16}6,5,
6,3,4,3,5,4,{8}6,,{16}1,8,{4}1,
5-1[8:3],5,5,{8}5,1h[4:1],
{4}5,{8}5,8,5,2,5,1,
{4}4-8[8:3],4,4,{8}4,8,
4,1,4,7,{12}5,4,6,3,4,2,
{4}8<3[16:5],1,{2}1,
{4}2>7[16:5],8,8,1,
{6}2,{12}6,3,5,4,{6}5V73[16:5],1,1,
{4}2>5[6:1],{8}8,8<5[6:1],,4,3,2,
{4}1qq3[2:1],4h[4:1],,{8}5pp4[2:1],5,
{4}4,3,{2}2b-5[8:1]*-6[8:1],
{8}7bpp1[16:3],{4},{8}3bpp5[16:3],{4},8b<3[16:5],
{8},2b,{4},{2}1v6[8:1],
{4}4<7[8:1],1,{8}2,8<6[8:1],,8>3[8:1],
,8-4[8:1],,8,,2,{4}4<7[8:1],
{8}1,1-6[8:1]*-4[8:1],,1>7[16:5],,1,,8h[8:3],
,1,1,8,{16}2,3,4,5,8,7,6,5,
{8}3<6[16:3],3,{4}7,{8}8-4[8:1],8,{4}4,
3-8[8:1],{8}3/5,7-3[8:1],,7/4pp5[8:3]*qq3[8:3],{4},,,{8}3,
2/4,6,7/5>3[8:1],
,5<8[8:1],,5b,,{16}2,3,4,5,6,7,
{4}8>3[6:1],5,{8}7,4<6[8:1],,4>1[8:1],
,4-8[8:1],,4,{4},7/1<6[8:1],
{8}4,4-7[8:1],,4-8[8:1],,4,,7h[8:3],
,8,8,7,{16}1,2,3,4,7,6,5,4,
{8}2<6[16:3],2,{4}4,{8}4<8[16:3],4,{4}3,
2-6[8:1],{8}2/1,8-5[8:1]*-3[8:1],,8,,6/2pp8[24:11],
{4}2/6,{8}7,7,6,6,5,8/5p8[16:3],
,1,{4}1,{12}3,7,4,6,5,6,
{4}4b/7b,5/3>8[8:1],{2}7,
{4}3/6,4/5<8[8:1],{2}1,
{4}6/3,7/4V26[2:1],{2}8h[2:1],
{4},{8}7,2,6,3,5,4,
{2}6b/3h[2:1],4q1[8:3],
2h[2:1],{4}1-5[8:1],8b/1b,
{8}6,5>2[8:1],7,5,,{16}8,7,6,5,4,3,
2,1,{8}4/8<5[8:1],,8/1,,3,4,2,
6,1>4[8:1],7,1,,{16}8,7,6,5,4,3,
2,1,{8}4/8-4[8:1],,1/8,,3,4,1,
7,8>3[8:1],6,8,,{16}5,6,7,8,1,2,
3,4,{8}1/5-8[8:1],,5/4,,1,8,2,
7bp3[8:1],{4},{8}1bq5[8:1],{4},8b-4[8:1],
{8},5b<8[8:1]*>2[8:1],{2},{8}2,1<6[8:1],
3,1,,{16}4,3,2,1,5,6,7,8,{8}3>8[8:1],
,3/4,,7,8,6,2,5<8[8:1],
3,5,,{16}4,3,2,1,5,6,7,8,{8}2-5[8:1],
,1/2,,6,4,7,3,4<7[8:1],
2,4,,{16}1,2,3,4,8,7,6,5,{8}1w5[8:1],
,1b,,3/7,3/7,3/7,{4}2>5[8:1],
{8},1q5[8:1],{4},{8}8>3[8:1],{4},{8}7q3[8:1],
,,,,,{16}3,4,{4}2h[8:1],
5h[8:1],4>1[8:1],{8},5p1[8:1],{4},{8}6>3[8:1],
{4},{8}7w3[8:1],
E
