&title=Hurtling Boys
&artist=さだきち イシカダス「太鼓の達人」より
&first=-0.1
&des=ナナミ
&lv_7=14+?
&inote_7=(195)
{1},
{8}3,,6h[8:3],,,4,6,5,,5,3,4,,
{16}6,,6,5,6,,
{8}3h[8:2],,4,,4,5,,6,
{16}6,5,6,,4h[8:2],,,,5x,,,6x,,,7x,,3h[8:2],,,,5,,,,,,,,4,4,,,,,,,35,,,,
{8}4,5,6,3,5,6,7,8,4,3,2,1,8h[96:1],8h[96:1],8h[96:1],8h[96:1],1,,
{16}8,8,8,8,1b,,
{16}6,5,6,,3,4,3,,6,5,6,,3,4,3,,6,5,6,,3,4,3,,6,5,6,,3,,3x/4x,,4x/5x,,5x/6x,,
{16}3,4,2,,6,5,7,,3,4,2,,6,5,7,,3,4,2,,15,,6,8,7,1,7,,
{16}2,1,2,,7,8,7,,2,1,2,,7,8,7,,2,1,2,,7,8,7,,2,1,2,,7,,56,,45,,3,,24,,1x/2x,,1x/8x,,7x/8x,,1x/6x,,2,,38,,4,4,4,,5,5,5,5,5,5,5,,
{16}4x/6x,,2,4,3,,7,5,6,,2,4,3,,7,5,6,,2,4,3,,7,5,6,,2,4,3,,45,,56,,78,,78,,
{16}1,4,3,,8,5,6,,1,4,3,,8,5,6,,47,,3,,25,,6,,47,,
{8}8hx[8:3],,,1hx[8:3],,,2hx[8:3],,,3hx[8:3],,,4,,45,,
{16}4,,,5,,,3,6,2,7,1,8,
{24}1,8,1,8,1,8,
{16}1x,1x,1x,,28,,37,,4/6hx[8:3],,,5x,,,7x,,
{16}8,7,8,,16,,2,1,2,,38,,47,,6,,3,4,2,,15,,6,5,7,,48,,2,1,3,1,2,,38,,7,4,6,,45,,3,4,2,,15,,6,5,47,,38,,2,,7,8,6,1,
{24}5,2,5,2,,,
{16}34,,2,1,3,,48,,7,5,6,,35,,2,,8,,17,,26,,35,,6,5,,3,4,,25,,1,,28,,37,,46,,5,4,6,4,7,,38,,2,1,,3,4,,25,,1,6,1,7,
{24}1,8,1,8,1,8,
{16}1b,,2,8,3,7,2,,15,,6,5,7,,48,,2,1,2,,38,,7,8,6,,15,,24,,3,,
{16}6,5,6,3,4,3,6,5,7,3,4,2,6,5,8,3,1x/7x,,2x/6x,,3x/5x,,4x,,
{24}6,5,6,3,4,3,7,2,8,1,8,1,
{8}8hx[4:7],,,1,,,2,,,3,,,4,,4,,4,,4,,5,,5,,3,3,6,6,
{16}2,7,2,7,1b/8b,,,,
{16}27,,3,4,25,,,,6x,,5x/7hx[8:2],,,,8x,8h[16:3],,,1x,1h[16:3],,,2x,,1x/3x,3,,2x/4x,24,,5x,,
{16}1,,6,5,74,,,,3x,,4x/2hx[8:2],,,,1x,1h[16:3],,,8x,8h[16:3],,,7x,,8x/6x,6,,1,2x/8x,,,,
{16}34,,34,,34,,,,6x,,5x/7hx[8:2],,,,8x,8h[16:3],,,1x,1h[16:3],,,2x,,1x/3x,3,,2x/4x,24,,5x,,56,,7,8,,8,1,,1x/2x,,2,3,,3,4,,4x/5x,,
{16}4,5,3,6,2,7,
{24}1,8,1,8,1,8,2bx/7bx,,,,,,
{16}27,,3,4,25,,,,6x,,5x/7hx[8:2],,,,8x,8h[16:3],,,1x,1h[16:3],,,2x,,1x/3x,3,,2x/4x,24,,5x,,
{16}1,,6,5,74,,,,3x,,4x/2hx[8:2],,,,1x,1h[16:3],,,8x,8h[16:3],,,7x,,6x/8x,,1x/5x,,3x/1x,,4x/8x,,
{16}5h[8:4]/7,,,,,,4,,4h[8:2],,,,3,,24,,,,15,,68,,7,,56,,4,5,3,,26,,
{24}1,8,1,
{16}7,2,
{24}8,1,8,
{16}2,7,
{24}1,8,2,7,3,6,4,5,3,6,2,7,
{24}1,8,1,
{16}7,6,5,4,
{24}2,1,3,8,4,7,5,6,5,
{32}7,8,1,2,3,4,5,6,
{1}7b,,,,
{4}1h[4:4],,,,8h[4:4],,2,3,4h[4:2],,5,5,
{16}4,5,3,6,2,7,1,8,2,7,4,5,3,6,4,5,
{16}2,1,3,,48,,57,,3,4,2,,15,,6,,47,,3,1,2,,18,,8,7,1,6,2,5,3,4,2,,2,1,3,,48,,75,,6,,4,5,3,,
{16}3,4,
{24}2,5,2,
{16}6,5,
{24}7,4,7,
{16}1,8,1,8,27,,,,
{16}3,,6,5,7,,48,,2,4,3,7,8,6,1,,25,,46,,3,5,1,6,4,8,
{24}2,1,2,
{16}1,8,7,6,
{16}45,,3,4,3,,25,,6,5,6,,47,,3,4,3x,,
{16}2,5,3,6,4,7,3,6,2,5,1b,,,,
{16}7,,4,5,3,4,2,,1,,5,4,6,5,7,,8,,24,,1,,5/7h[8:1],,1,,28,,5,,46,,
{16}25,,3,,4,4,4,,57,,6,,8,8,8,,17,,2,4,,7,5,,3,4,2,5,16,,,,8b,,1,1,1,,28,,3,,46,,5,5,5,,
{16}4,6,3,5,2,7,1,8,1b,,2,8,3,7,4,6,28,,28,,1b,1b,1b,1b,28,,,,8b,8b,8b,8b,17,,,3,4,,45,,6,,57,,
{24}4,8,4,8,4,,
{16}4b,,5x,3,4,3,6x,2,4,2,7x,1,4,1,8x,1,8,7,6,5,1,2,3,4,
{16}5h[96:1],5h[96:1],5h[96:1],5h[96:1],6h[96:1],6h[96:1],6h[96:1],6h[96:1],7b,,
{16}4x,6,5,6,3x,7,5,7,2x,8,5,8,1x,8,1,2,3,4,8,7,6,5,3x/4x,,
{16}1b,5b,3b,8b,4b,6b,1hbx[8:2],,,,5bx,,,,
{24}25,,,3,4,3,4,,,25,,,6,5,6,
{16}5,7,
{24}4,8,4,8,,,
{16}3,4,2,5,
{24}1,6,1,6,1,6,
{16}78,,16,,2,5,3,6,4,7,2h,1,3h,4,8h,7,
{32}1hb[96:1],,3hb[96:1],,5hb[96:1],,7hb[96:1],,1hb[96:1],,,,,,,,
{24}8h[8:1],,,4,4,4,
{16}4w8[8:1],4h[384:1],4h[384:1],4h[384:1],
{96}4h[384:1],Cf,
