&title=Do You Even DJ? (feat. Neko Hacker)
&artist=電音部; Neko Hacker; 小坂井祐莉絵
&first=0.02
&des=Lucy
&lv_5=13+
&inote_5=(180)
{1}
,
{2}
3h[1:1],,5h[1:1],,4h[1:1],,6h[1:1],,
5h[1:1],,7h[1:1],,6h[1:1],,8h[2:1],1s5[4:1],
{8}
8,7,6/5,,3/4,,8/2,,
{16}
7,5,6,,
{8}
3-5[8:1],,3/6-8[8:1],,6,,
{8}
1,2,3/4,,5/6,,
{16}
7,1,7,,2,4,2,4,
{8}
2-5[8:1],,2/6-1[8:1],,6,,
{8}
2,3,4/8,
{48}
,,,,,6,
{8}
5,,1h[4:1],,
{12}
7,1,8,
{8}
2-4[8:1],,2/6-8[8:1],,6,,
{8}
4,3,2/8,,1/6h[4:1],,5,7,
{12}
4,6,3,
{8}
5-7[8:1],2,5/1-5[8:1],,1b/8b,,
{8}
7h[4:1],,
{12}
5,7,3,5h[6:1],,2-4[8:1],5,,2,
{8}
8h[4:1],,
{12}
4,8,3,5h[6:1],,2-4[8:1],5,,2,
{8}
1h[4:1],,
{12}
4,1,3,7h[6:1],,1,7,4,5,
2-4[8:1],,1,2-8[8:1],,5,2-5[8:1],,,2/7,,,
{8}
6,7,5/8,4,3,2,1/7,6,4/5,3,2-4[8:1]/8-6[8:1],1,2-5[8:1]/8-5[8:1],,2/8,,
4h[4:1],,5-8[8:1],4,5/3h[4:1],,1,3,2/8,7-3[8:1],1-5[8:1],7,1b,,,,
{2}
8h[2:1],7h[2:1],6h[2:1],5h[2:1],4h[2:1],3h[2:1],2h[2:1],1h[2:1],
{4}
8h[2:1],7,7h[2:1],6,6h[2:1],5,5h[2:1],4,4h[2:1],3,3h[2:1],2,2h[2:1],1,1h[2:1],8,
8<4[2:1],8,1,2,3>7[2:1],3,4,5,6>2[2:1],6,7,8,1>5[2:1],1,8,7,
6-4[8:1],6/3,2-5[8:1],2/8,7-4[8:1],7/1,3-1[8:1],3/5,
{8}
8,8,1/7,1/7,2/6,2/6,3/5,3/5,
4h[4:1],,5,4,6-2[8:1],,
{8}
1>7[2:1],,
{4}
8b,7<1[2:1],8b,1>7[2:1],8b,7V51[4:1],8b,
{8}
,7h[4:1],,1,7,8-3[8:1],6,8,,5h[4:1],,2-5[8:1],5-1[8:1],2,6,7,
{8}
8<2[2:1],,
{4}
1b,2>8[2:1],1b,8<2[2:1],1b,2V48[4:1],1b,
{8}
,2h[4:1],,8,2,1-6[8:1],3,1,,4,5,2-4[8:1],6-8[8:1],2-6[8:1],6,2,1h[4:1],,
{8}
5bqq2[2:1],,,8,8,,,7qq4[2:1],,2,,1,1,,,
8pp4[2:1],,4,,5,5,,,6<1[4:1],,4,,3,3b,,
2b-6[8:1]/8b-4[8:1],,2b/8b,,,,
5,4/6,3/7-4[8:1],,1-5[8:1],,8-4[8:1],,2b-6[8:1],,1b/2b,,
7,6,8,2,4,3/5,,2b-5[8:1]/6b-1[8:1],,2b/6b,,8/4,2b/6b,,,,
{2}
6h[2:1],5h[2:1],4h[2:1],3h[2:1],
7h[2:1],5h[2:1],4h[2:1],2h[2:1],
{8}
3,2,3,2,,,7,6,7,6,,
{16}
1,8,1,,2/7,,2/7,,,,
{8}
3,5,3,6,4,6,3,4,2,6,5,7,
{16}
2,3,4,5,6,7,8,1,
2b>5[8:1],,,1,2,,8,,7h[8:1],,5h[8:1],,
6<1[8:1],,,5,6,,4,,
3b>8[8:1],,,,3/7,6,5,4,3,2,1,8,
7b<4[8:1],,,8,7,,1,,2h[8:1],,4h[8:1],,3h[8:1],,7h[8:1],,
2,3,4,5,6,7,8,1,2/7,6,5,4,3,2,1,8,
7b<4[8:1],,,8,7,,1,,2h[8:1],,4h[8:1],,
3>8[8:1],,,4,3,,5,,
6b<1[8:1],,,,6/2,3,4,5,6,7,8,1,
2b>5[8:1],,,1,2,,8,,7h[8:1],,5h[8:1],,6h[8:1],,2h[8:1],,
1,8,7,6,5/4,3,2,1,7,6,8,1,6,5,1,2,
4b,3,4,3,5,2,5,2,6,4,6,4,7,3,7,3,
8,5,6,1,4,3,7,5,6,2,4,3,6,5,7,4,
8,1,8,1,6,4,5,3,8,2,7,5,6,4,5,3,
4h[8:1],,2h[8:1],,7h[8:1],,5h[8:1],,6-1[8:1],,5,,4,,3,,
2b,1,3,8,4,7,5,6,3,4,2,5,1,6,8,7,
1,4,3,8,5,6,2,4,3,7,5,6,3,4,2,5,
1,8,1,8,3,5,4,6,1,7,2,4,3,5,4,6,
5h[8:1],,8h[8:1],,2h[8:1],,6h[8:1],,2h[8:1],,8h[8:1],,3-5[8:1],,5,,
