&title=Fleeting Lullaby
&artist=FAKE TYPE
&first=0.345
&des=ItsPrisma
&lv_5=13+
&des_5=ItsPrisma
&inote_5=
(89){4},{12},,,B7,C,B2,5h[3:1]/3h[8:3],,,,,,{4}6h[8:3]/4h[3:1],
,7h[3:1]/1h[8:3],
,8h[8:3]/2h[3:1],,3h[4:1]/C,
{24},,B6,B5,,,{4}6h[4:1]/C,{24},,B1,B2,,,{8}6/5,5/4,
{4}4/3q6[2:1],,,E1f/B8/B1,
{24},,7/2,2b/7b,,,{12}6,{24}6,4,,4,{12}5pp8[4:1],{24}5,1,,,{8}5/2h[12:1],3h[12:1],
4,{24}7,1,7,{12}1,{24}1,8,,8,{12}3qq8[4:1],{24}3,4,,,{8}3/5h[12:1],6h[12:1],
7,5h[12:1],4h[12:1]/6-1[12:1],7h[12:1]/3h[12:1],6b/2h[12:1],3h[12:1],7h[12:1]/4-8[12:1],6h[12:1],
4b/5h[12:1],6b,{12}7,{24}1,8,,3,{12}4,{24}6,5,,4,{12}5q2[8:1],{24}8/1,8/1,,,{12}5/4,
{24}3,3,,,{12}6bx/1h[4:1],{24}5x,5x,,4,{12}4h[4:1],{24}3x,3x,,2,{12}2h[4:1],{24}6x,6x,,7,
{12}7h[4:1],{24}4x,4x,,5,{12}5,{24}7/4,7/4,,6/2,{8}6qq3[4:1]/2qq7[4:1],E5/E1/B5/B4/B8/B1,{4}6/2,
{24},,5,3,6,2,{12}7b,{24}1,8,,8,{8}4h[12:1],5h[12:1]/3h[12:1],2h[12:1]/6q6[8:1],1h[12:1],
{4}6/2h[12:1],{8}1/2-4[12:1],1/8-6[12:1],2/1-5[12:1],8,1,7/3,
{24}6-2[12:1],4,5,3,,3,{8}6b,{24}1h[12:1],,7,,,{12}6/2,{24},5/3,{12}5/3,{24}6/4,6/4,,7/3,
,,{12}8/2,{24},7/1,{8}1/7h[8:1],8h[8:1],1h[8:1],2h[12:1],{12}7h[12:1],{24}1,7h[12:1],,3,
{8}7-4[12:1],6/2,7/1,{24}2,,2,{12}4q1[8:1],{24}4,1q6[8:1],,,{8}4/3,2,
1>4[8:1],4q1[8:1],1/8,7,6h[12:1],6,4/3h[12:1],{24}4/3,,5/4,
{8}6h[12:1]/5<4[4:3],5/6,{4}5b,{24},,,,,,,,,,,,,,6/3,
6b/3b,,,{12}8-4[12:1],{24}8,2-6[12:1],,2,{8}8,{24}2,,7w3[12:1],{12}7,6/8,{24},7b,
,,,{8}1/7,{12}3-7[12:1],{24}3,5-1[12:1],,5,{8}3,{24}5,,2w6[12:1],{12}2,1/3,{24},2b,
,,,8/4,,8/4,{8}8h[8:1]/4h[12:1],{24}2,,7/3,{8}7h[12:1]/3h[8:1],{24}5,,6/2,{8}6h[12:1]/2h[8:1],{24}8,,1,
{12}1-5[12:1],{24}7,7,,,{8}1/6h[12:1],7h[12:1],{12}1/2,4/6,7/8,3/5w1[12:1],{24},{8}8/2,
5b,7/3,{12}8,{24}3,4,,6,{12}5-2[12:1],{24}4,5,,,{8}5-8[12:1]/1-4[12:1],8x,
{24}5,,,,,7,{8}7h[8:1],{24}B4/B3,,2,{8}2h[8:1],{24}B6/B5,,6,{8}6h[12:1],7h[12:1]/5h[12:1],
8/4,7b/2b,{12}5,{24}2,1,,7,{12}8-3[12:1],{24}1,8,,,{8}8-5[12:1]/4-1[12:1],5x,
{24}8/4,,,,,6,{12}6,{24}2,2,,4,{8}4-8[12:1],4>1[12:1],4<7[12:1],4-8[12:1],
4,4,{4}7b,{24},,5,4,,4-8[12:1],{12}5,6/3,{24},4,
,,7,7,,6,{12}6,{24}3,3,,4,{8}4,{24}6,,2,{12}1-4[12:1],{24}7,8-5[12:1],,,{8}1,
8,{12}3bx,{24}6,5,,5,,,1,8,,8-4[12:1],{12}1,7/1,{24},8,
,,2,2,,3,{12}3,{24}6,6,,7,{8}7,8/4,7-2[12:1],8/3-6[12:1],
7/4,3,{12}8,{24}2-5[12:1],7,,1,,,{12}2,{24},6,{12}4,{24}7-4[12:1],3,,2,
,,{12}7,{24},,{8}5h[12:1]/3h[12:1],{24}5/3,,5/3,{8}6h[12:1]/4h[12:1],6/4,7/5-8[12:1],3/1-4[12:1],
5,1,7h[12:1],6h[12:1]/2h[12:1],3h[12:1],8h[12:1]/4h[12:1],1/5,7/3,
6/2,{24}1,7,1,{12}7-4[12:1],{24}2,8,,3,{8}7-2[12:1],3,7-3[12:1],4,
7,2b,{24}7,8,6,2,1,3,{8}8-4[12:1],5/3,{24}8/2h[8:1],,,,,6h[8:1],
,,,{8}4h[12:1]/7h[12:1],{24}8,1,7,2,,6,2,1,3,8b,,,4-1[12:1],5,3,4-7[12:1],,,{8}4,
4,{12}8w4[12:1],{24}7x/1x,6x/2x,,,{8}8,7/1,3h[12:1]/6h[12:1],{24}5/3-8[12:1],,4,
{8}2,3/6,{12}7-4[12:1],{24}2,1,,,{8}7/3,{24}2,,5q8[6:1],{8}4,{24}6/3,,5,
,,,2b,,8,{12}1-6[12:1],{24}4,3,,,{8}5h[12:1]/1-4[12:1],5,6h[12:1]/1-5[12:1],6,
1/7h[12:1],{24}7,2,7,{12}2>5[12:1],{24}8,1,,,{8}6h[12:1]/2<7[12:1],6,5h[12:1]/2-6[12:1],5,
2/4h[12:1],4,5b/3b,{24}6/4,,7,{12}1pp4[4:1],{24}8,2,,5,{12}1,{24}6,6,,7,
{8}7-4[12:1],6,7/2-5[12:1],1,2/6-1[12:1],7,6/3-8[12:1],{24}4,,6xw2[24:7],
{12}3x,7x,{24},6x,
E
