&title=ΔΟΓΜΑ
&artist=iereas
&first=0
&des=解明タイガー
&lv_5=15
&inote_5=(180)
{1},
{16}4,6,4,6,3v4[8:1],5,3,5,,,,,,,,,5,3,5,3,6,4,6,4,7pp2[8:3],5,7,5,,,,,,3hx[16:7],,,,,,,6,4,6,4,7,5-3[8:1],7,5,,,,,8,2,8,2,7,1,7,1,6,8,6,8,,3,4,3,,,2,4,3,5,4,6,5,7-4[8:1],6,8,,,,,2,1,3,8,1,8,2,7,8,7,1,6,2,4,3,5,4,6,5,7,
{24}1,2,3,8,7,6,2,3,4,7,6,5,4b,,,,,,
{128}2/3h[16:3],4,,,,,,,,,,,,,,,,,,,,,,,,,,,,,,,4h[16:3]/3,5,,,,,,,,,,,,,,,,,,,,,,,,,,,,,,,4,5h[16:3]/6,,,,,,,,,,,,,,,,,,,,,,,,,,,,,,,5,6h[128:31]/7,,,,,,,,,,,,,,,,,,,,,,,,,,,,,,,
{8}3,2,18,,{12}7,7,7,5h[4:1]/6,,,4h[4:1],,,
{128}3h[128:31],1h[128:31],,,,,,,,,,,,,,,,,,,,,,,,,,,,,,,2h[128:31],8h[128:31],,,,,,,,,,,,,,,,,,,,,,,,,,,,,,,1h[128:31],7h[128:31],,,,,,,,,,,,,,,,,,,,,,,,,,,,,,,6h[128:31],,,,,,,,,,,,,,,,,,,,,,,,,,,,,,,,4h[2:1]/5h[4:1],,,,,,,,,,,,,,,,,,,,,,,,,,,,,,,,,,,,,,,,,,,,,,,,,,,,,,,,,,,,,,,,
{12}3,3,3,5b,,,
{128}7/6h[16:3],5,,,,,,,,,,,,,,,,,,,,,,,,,,,,,,,5h[16:3]/6,4,,,,,,,,,,,,,,,,,,,,,,,,,,,,,,,5,4h[16:3]/3,,,,,,,,,,,,,,,,,,,,,,,,,,,,,,,4,3h[128:31]/2,,,,,,,,,,,,,,,,,,,,,,,,,,,,,,,
{8}6,7,81,,{12}2,2,2,4h[4:1]/3,,,5h[128:31],,,
{128}Ch[128:131]/7,6h[16:3],,,,,,,,,,,,,,,,,,,,,,,,,,,,,,,8,7h[16:3],,,,,,,,,,,,,,,,,,,,,,,,,,,,,,,2,1h[16:3],,,,,,,,,,,,,,,,,,,,,,,,,,,,,,,
(165){128}3,2h[128:31],,,,,,,,,,,,,,,,,,,,,,,,,,,,,,,{4},
(160){4}4b/5,36,
(150){8}27,{24},1,8,1,8,1,8,1,8,
(145){4}2h[4:1]/7b^4[4:1],{8},3,
(180){4}3b,
{16}7,8,7,1,7,2,7,3,7,6,5,4,,,2,1,2,8,2,7,2,6,2,5,2,3,4,5,
{16}8^3[16:3],,,3^6[16:3],,,6^1[16:3],,,,,,4,,3,,2-5[16:3],,,5-8[16:3],,,8-3[16:3],,,,,,5,6,7,8,1>6[2:1],,,,,,8-5-2[2:1],,,,,,,,,,
{16}1h[8:1],,,1,,,8h[8:1],,,82,,,
{16}3,4,3,2,
{16}1^6[16:3],,,6^3[16:3],,,3^8[16:3],,,,,,5,,6,,7-4[16:3],,,4-1[16:3],,,1-6[16:3],,,,,,2x,3x,4xh[8:1],,8>8[4:3],,,,,,3h[2:1],,,,,,,,,,3,4,,4,5,,5,6,,,,,
{16}2,3,4,5,7^2[16:3],,,2^5[16:3],,,5^8[16:3],,,,,,3,,2,,1-4[16:3],,,4-8[16:3],,,8-3[16:3],,,,,,5,6,7,8,15,,48,,3,2,1,8,
{12}6,6,6,5,5,5,
{16}4h[8:1],,3,4,,2-4[8:1],,1,,,,,
{16}5,6,7,8,2^7[16:3],,,7^4[16:3],,,4^1[16:3],,,,,,6,,7,,8-5[16:3],,,5-1[16:3],,,1-6[16:3],,,,,,2,3,4,,
{8}4h[8:3],,1,1h[8:3],,5,5h[8:3],,2,2h[8:5],,6,6h[4:1],,
{32},1x/5x,4x/8x,3x/7x,,,,,
{12}1b/8b,,,5,46,5,4x/6x,,46,,46,,3x/8x,,{24}8,7,6,5,34,,,,
{24}2x/7x,,,,1,2,3,4,56,,,,
{12}8b/1b,,,4,35,4,5x/3x,,53,,53,,,7bx/8bx,78,,1bx/2bx,12,12,,46,,35,,
{128}5b,4h[128:111]/6h[128:127],,,,,,,,,,,,,,,,,,,,,,,,,,,,,,,
{4},,,
(185){16}A4,E4,E3,A2,A6,E6,E5,A4,A8,E8,E7,A6,A2,E2,E1,A8,
{16}3,4,3,4,3,4,3,4,,,2,1,2,3,4,5,E8,E7,E6,E5,3,2,1,8,6,5,6,5,6,5,6,5,,,7,8,7,6,5,4,E1,E2,E3,E4,6,7,8,1,
{4}3h[4:1],4h[4:1],5h[4:1],{16}6,7,8,1,3,45,6,7,8b,,,,
{4}6h[4:1],5h[4:1],4h[4:1],{16}3,2,1,8,6,54,3,2,1b,,,,
{4}7h[4:1],5-1[8:1],3h[4:1],2h[4:1],4-8[8:1],6h[4:1],
{16}2,3,5,4,2,3,5,4,2,3,5,4,
{16}1,8,6,7,1,8,6,7,1,8,6,7,
{24}1,2,3,4,5,6,7b/B2/B3/E3,,,,,,8,7,6,5,4,3,2b/B6/B7/E7,,,,,,3,2,1,8,7,6,5b/B8/B1/E1,,,,,,
{384}4,3x/5x,,,,,,,,,,,,,,,,,,,,,,,,,,,,,,,,,,,,,,,,,,,,,,,,,,,,,,,,,,,,,,,4,3x/5x,,,,,,,,,,,,,,,,,,,,,,,,,,,,,,,,,,,,,,,,,,,,,,,,,,,,,,,,,,,,,,,4,3x/5x,,,,,,,,,,,,,,,,,,,,,,,,,,,,,,,,,,,,,,,,,,,,,,,,,,,,,,,,,,,,,,,
{12}2b/6b,,,5,64,73,8-4[8:1]/2-6[8:1],,,,,,
{4}B7/C/B3/1b,
{16}2,8,2,8,2,8,1,7,1,7,1,7,{24}2,3,4,8,7,6,1,2,3,4-1[8:3]/5-2-4[8:3],6,7,8b,,,,,,,,,,,,,,,,,,
{64}5x/E1,6x,7bhx[64:30],,,,,,,,,,,,,,,,,,,,,,,,,,,,,,,,,,,,,,,,,,,,,,
(190){16}3x/4,5,4,6,4,5,4,6,3x/4,5,4,6,2x/3,5,4,6,3,5,4,6,3x/4,5,4,6,3x/4,5,4,6,4,5,4,6,2x/3,5,4,6,3x/4,5,4,6,4,5,4,6,3b,,,,6x/5,4,5,3,5,4,5,3,6x/5,4,5,3,7x/6,4,5,3,6,4,5,3,6x/5,4,5,3,6x/5,4,5,3,5,4,5,3,7x/6,4,5,3,6x/5,4,5,3,5,4,5,3,6b,,,,
{16}1x/8x,,1x/8x,,3,5,4,6,3,5,4,6,1x/8x,,8x/7x,,4,5,4,6,4,5,4,6,1x/8x,,1x/8x,,3,5,4,6,3,5,4,6,1x/8x,,7x/8x,,3,5,4,6,5b,,,,8x/1x,,8x/1x,,6,4,5,3,6,4,5,3,8x/1x,,1x/2x,,5,4,5,3,5,4,5,3,8x/1x,,8x/1x,,6,4,5,3,6,4,5,3,8x/1x,,2x/1x,,6,4,5,3,4b,,,,
{16}26,,26,,35,4,35,,46,5,46,,37,,37,,1,28,1,,8,17,8,,26,,3/7h[4:1],,2,3,4,5,{24}8,1,2,3,4,5,{16}6bw2[8:1]/B2/E2/E3,,,,,,,,4x/8x,,,,
{16}73,,73,,64,5,64,,53,4,53,,62,,62,,8,71,8,,1,82,1,,73,,6/2h[4:1],,7,6,5,4,{24}1,8,7,6,5,4,{12}3b/7,5,6,2,4,3,8,6,7,{24}1b,8,1,8,1,8,1,8,1,8,1,8,1,8,1,8,1,8,{16}1,2,3,4,8,1,2,3,{24}7,8,1,2,3,4,5b<3[8:3]/7h[4:1],,,,,,,,,,,,4-7-1-4[8:3]*-1-7-4[8:3],,,,,,4b,,,,,,,,,,,,3b/5b,,,,,,
{16}26,,3,5,3,5,3,5,4,6,4,6,37,,2,8,2,8,2,8,1,7,1,7,26,,3,4,3,5,4,5,{32}2,3,4,5,6,7,8,1,2bh[2:1],,,,,,,,E7,E6,E5,E4,E3,E2,E1,E8,A6,A5,A4,A3,A2,A1,A8,A7,
{4}A6/D6f/A5,E1,E2,E3,E4,E5,7h[4:1],6h[4:1],5h[4:1],4h[4:1],3,2-6[8:1],{24}1b,8b,7b,,,,4,5,4,5,4,5,3,6,3,6,3,6,2,7,2,7,2,7,1b/8b,,,,,,
{128}7/6h[16:3],5,,,,,,,,,,,,,,,,,,,,,,,,,,,,,,,5h[16:3]/6,4,,,,,,,,,,,,,,,,,,,,,,,,,,,,,,,5,4h[16:3]/3,,,,,,,,,,,,,,,,,,,,,,,,,,,,,,,4,3h[128:31]/2,,,,,,,,,,,,,,,,,,,,,,,,,,,,,,,
{8}6,7,{12}38,7,6,58,4,3,25,3,4,25,6,7,3b/8b,3,45,7b,7,56,1b,1,34,8bh[4:1],,,,,,
{4}4/5b,36,
{8}27,{24},8,7,6,5,4,3,2,1,
(180){24}8b/7b^4[4:1],,,,,,
{8},3,
(170){8}3b,,{12}27,27,27,1/8b,,,27,,,
(160){384}3b/6,4,5h[384:190],,,,,,,,,,,,,,,,,,,,,,,,,,,,,,,,,,,,,,,,,,,,,,,,,,,,,,,,,,,,,,,,,,{24}3,4,3,4,3,4,3,4,
(150){24}3,2,1,8,14,25,36,47,3,2,1,8,
(180){16}7b/5b,,,,6,5,6,5,3,4,3,4,7,5,7,5,1b,,,,3,4,3,4,6,5,6,5,2,4,2,4,
{16}8b,8,56,7,7,56,4,4,56,3,3,56,2,2,56,{64}1b,2x,3x,4x,
{16},,76,5,67,34,5,34,
{16}2b/8b,37,46,5-1b[8:1],46,37,28,,,,,,
{96}1xb,2,8,3,7,4h[96:103]/A5f,6h[96:103],,,,,,,,,,,,,,,,,,,,,,,,,,,,,,,,,,,,,,,,,,,,,,,,,,,,,,,,,,,,,,,,,,,,,,,,,,,,,,,,,,,,,,,,,,,,,,,,,,,,,,,3V14[1:1],7V16[1:1]*V16[1:1],B3,Ch[16:1],B7,,,,,,,,,,,,,,,,,,,,,,,,,,,,,,,,,,,,,,,,,,,,,,,,,,,,,,,,,,,,,,,,,,,,,,,,,,,,,,,,,,,,,,,,,,,,,,,,,,,,,,,,,,,,,,,,,,,,,,,,,,,,,,,,,,,,,,,,,,,,,,,,,,,,,,,,,,,,,,,,,,,,,,,,,,,,,,,,,,,,,,,,,,,,,,E
