&title=QZKago Requiem [DX]
&artist=t+pazolite
&first=0.02
&des=魔曲之魂
&lv_6=15
&inote_6=(257)
{1},
{4}2/B7,3,4,5,
{4}6/B1,7h[2:1],,2,
{4}8/B3,7,6,5,
{4}1/B4,2,2,1,
{4}8/B5,7,6,5,
{4}4/B7,3h[2:1],,8,
{4}7/B2,6,7,8h[1:1],
{16}A3,E4,B4,B5,E6,A6,,,C1,,,,,,,,
{24}7/E2,B2,B3,,,,{4}6,5,4,
{24}3/E1,B8,B7,,,,{4}2h[2:1],,5,
{24}1/E6,B6,B7,,,,{4}2,3,4,
{24}6/E5,B4,B3,,,,{4}7,8h[2:1],,
{8}4,6,4,6,3,5,3,5,
{8}2,4,3,5,4,6,5,7,
{8}4,8,3,7,2,6,1,5,
{16}1-5[8:1],,5-1[9:1],,1,,,,{32}A8f/A2f,D8/D3,A7/A3,D7/D4,A6/A4,D6/D5,A5,,,,,,
{16},,
{8}7-3[8:1],7,2-5[8:1],2,5-1[8:1],6,7^4[8:1],7,
{16}2-7[8:1],,2,,6v1-7-5b[32:11],,6,,5,,5,,4,3,2,1x,
{8}6x^1[8:1],6x,1-5[8:1],2,3-8[8:1],3,7-4[8:1],7,
{8}1-5[8:1],1,5-3-8[4:1],6,7,7,6,5h[8:1],
{8}2-4[8:1],2,4-8[8:1],5,6-1[8:1],6,1-5[8:1],2,
{16}3-8[8:1],,3,,7-4-6-1b[32:11],,7,,1,,1,,2,3,4,5,
{16}8x-4[8:1],,8x,,2-6[8:1],,2,,5^8[8:1],,5,,{16}1,2,3,4,
{4}5x/6x-2[8:1],6x/1q5[8:1]*v4[8:1],A1f,,
{8}2-6[8:1],2,7-4[8:1],7,4-8[8:1],3,2^5[8:1],2,
{16}7-2[8:1],,7,,3v8-2-4b[32:11],,3,,4
,,4,,5,6,7,8x,
{8}3x^8[8:1],3x,8-4[8:1],7,6-1[8:1],6,2-5[8:1],2,
{8}8-4[8:1],8,4-6-1[4:1],3,2,2,3,4h[8:1],
{8}7-5[8:1],7,8-4[8:1],8,1>5[7:1]*<5[7:1],1,1,,
{8}3x-1[8:1],3x,4-8[8:1],4,5b-3-1[7:1]*-7-1[7:1],,5b,,
{8}4x/3x,5/2,6/1,8/7,2/1,3/8,4/7,6/5,
{4}4bh[4:1]/7bh[4:1],,3b/6b,1b/8b,
{8}2-6[8:1]/7,,8-5[8:1],8,3-8[8:1],,3/4,4,
{8}5^2[8:1],6,7-3[7:1],7,1-5[8:1]*-6[8:1],,1,,
{4}2b>6b[6:1],6b-2b[7:1],8b<4b[6:1],4b-8b[7:1],
{16}3>7[4:1],,,,3/7,6,5,4,3,,,,1b/5b,,,,
{4}6q2[32:5]/4,{8}2<6[32:5],3,4-8[8:1],,5x-1b[8:1],5x,
{8}2-6^8[32:10],,8,8-4^2[16:5],,5,5,,
{4}7b<3b[6:1],3b-7b[7:1],1b>5b[6:1],5b-1b[7:1],
{4}6h[4:1],7h[4:1],8h[4:1],{32}A1,D2,A2,D3,A3,D4,A4,D5,
{8}5hx[4:1]/7hx[4:1],,,6h[4:1]/8h[4:1],,,7h[4:1]/1h[4:1],,
{8},8h[4:1]/2h[4:1],,,1w5[8:1]/3,,,,
{8}7-3[8:1]/2,,1-4[8:1],1,6-1[8:1],,6/5,5,
{8}4^7[8:1],3,2-6[7:1],2,8-3[8:1]*-4[8:1],,8,,
{4}2x-8[8:1]/6x-4[8:1],2v5[7:1]/6v1[7:1],2/6,{8}4x/8x,4x/8x,
{8}3/7,2/6,1-3[8:1]/5,8-4[7:1]/4,1-5[7:1],8-6[8:1],1-7-2-6-3-5b[32:32],8,
{2}1,,
{1}8bh[2:1],
{4}1>5p1[4:6],,,A7h[4:3],
{4},E8,B7,E7,
{4}5<1p5[4:6],,,A3h[4:3],
{4},E4,B3,E3,
{4}1>6p1[4:6],,,D8h[4:3],
{4},A8,E8,A7,
{4}5<2p5[4:6],,,D4h[4:3],
{4},A4,E4,A3,
{8}3hx[8:2]/4hx[8:2],,,1h[8:2]/2h[8:2],,,7/8pp4[4:3],,
{1}7h[8:6],
{8}6h[8:2]/5h[8:2],,,8h[8:2]/7h[8:2],,,2/1qq5[4:3],,
{1}2h[8:6],
{16}4/3,,,,7,,8,,6,,6,,4,,4,,
{16}8,,2,,1,,1,,{32}2,3,4,5,,,,,8,7,6,5,,,,,
{4}3-8[8:1],8,6-1[8:1],1,
{32}2,3,4,5,,,,,8,,,,3,4,5,6x,,,,,8,,,,4,5,6,7x,8,1,2,3,
{8}4b-1[8:1]/7x,,4/6,5-8[8:1],,5,2,,
{8}7/3-7[8:1],3,8qq7>3[32:12],8,4h[8:1],,4hx[8:1],
,
{8}5bx-8[8:1],,5/3,4-1[8:1],,4,7,,
{8}2/6-2[8:1],6,1pp2<6[32:12],1,5h[8:1],,5hx[8:1],,
{8}4bx-1[8:1],,4/6,5-8[8:1],,5,2,,
{8}7/3-7[8:1],3,8qq7>3[32:12],8,4h[8:1],,4hx[8:1],,
{8}5bx-8[8:1],,5/3,4-1[8:1],,4,7,,
{256}3b-1-5-7[8:4]/6b-8-4-2[8:4],,,,{64},,,{16},{8},,,,,,,
{8}1b^4[8:1]/6,,1/7,8q5[8:1],,8,3x,,
{8}6/2-6[8:1],2,5pp7<2b[32:12],5,1h[8:1],,1hx[8:1],,
{8}8bx^5[8:1],,8/2,1p4[8:1],,1,6x,,
{8}3/7-3[8:1],7,4qq2>7b[32:12],4,8h[8:1],,8hx[8:1],,
{8}1bx^4[8:1],,1/7,8q5[8:1],,8,3x,,
{8}2-6[7:1]/6,7,7,7,,,5>7[3:1],6h[12:1],
{16},6h[12:1],,,6h[12:1],,,,{8}B6,B5,B4,B3,B2,B1,B8,B7,
{16}E7,E6,E5,E4,E3,E2,E1,E8,
{16}A7,A6,A5,A4,A3,A2,A1,A8,
{32}D8,D7,D6,D5,D4,D3,D2,D1,
{32}E8/D8,E7/D7,E6/D6,E5/D5,E4/D4,E3/D3,E2/D2,E1/D1,
{64}A8,E8,A7,E7,A6,E6,A5,E5,A4,E4,A3,E3,A2,E2,A1,E1,
{64}8x/B8,E8/D8,7x/B7,E7/D7,6x/B6,E6/D6,5x/B5,E5/D5,
{64}4x/B4,E4/D4,3x/B3,E3/D3,2x/B2,E2/D2,1x/B1,E1/D1,
{16}8bx-4b[8.03125#256:1],,,,,,,,
{1},,
{4},5b,,,
{1},,,,
{4}8b/7b,2b/1b-5[8:1],{16}8b/1b,C1f,,,{4},
{8},,,,,,,,
{4},,8qq6^7v4[16:30],,,,2,,,,
{8}8pp2^1v4[16:30],,,,,,,,6,,,,,,,,8>4[3:4]*<4[3:4],,,,,,,,,,,,,,,,
{4}1pp3^2v5b[16:30],1,6,6,7,7,8,8,1qq7^8v5b[16:30],1,4,4,3,3,2,2,
{8}3,3,3,3,4,4,4,4,5,5,5,5,6,6,6,6,
{8}3,7,1,5,
{16}8,1,2,3,4/5,6,7,8,2b/1b,,,,3bw7[8:1]/4bw8[8:1],,,,
{1}C1f,
{4}1b^2-4[8:1]*-3^4[8:1],1b^8-6[8:1]*-7^6[8:1],1b-5b[8:1],1b[8:1],
{48}8h[8:1]/D5,A4,D4,A3,D3,A2,,,,,,,{8},{48}A7/1h[8:1],D7,A6,D6,A5,D5,,,,,,,{8},2/1,,
{48}4h[8:1]/D1,A8,D8,A7,D7,A6,,,,,,,{8},
{48}A3/5h[8:1],D3,A2,D2,A1,D1,,,,,,,{8},6h[4:1]/5,,
{4}5v8[6:1],8^5[6:1],{8}5^2[6:1],,{8}2v5[8:1],,
{4}1h[8:1],{16}8/4,3/7,2/6,1/5,4-7[7:1]/8-3[7:1],,,,8/4,,,,
{8}2-5[8:1]/6,,7-3[7:1]/2-8[8:1],,2-4-6[4:1]/7,,2/4,7h[4:1],
{8},1-3[8:1],8-4[8:1],1,8,,6-2[8:1]/2,,
{8}1/6,,1/8,2/7,3-7[7:1]/6-4[8:1],,3/6,,
{16}8b,1,2,3,7b,6,5,4,1b,8,7,6,5,4,3,2,
{48}1h[8:1]/D5,A5,D6,A6,D7,A7,,,,,,,{8},{48}A2/8h[8:1],D3,A3,D4,A4,D5,,,,,,,{8},7/8,,
{48}5h[8:1]/D1,A1,D2,A2,D3,A3,,,,,,,{8},
{48}A6/4h[8:1],D7,A7,D8,A8,D1,,,,,,,{8},3h[4:1]/4,,
{4}4v1[6:1],1^4[6:1],{8}4^7[6:1],,{8}7v4[8:1],,
{4}8h[8:1],{16}1/5,6/2,7/3,8/4,5-2[7:1]/1-6[7:1],,,,1/5,,,,
{8}7-4[8:1]/3,,2-6[7:1]/7-1[8:1],,7-5-3[4:1]/2,,7/5,2h[4:1],
{8},8<5[8:1],1,8,3-8[8:1],4-7[8:1],3,4,
{8},1/6,2/5,3/4,1/5,2/6,3/7,4/8,1qq5[3:1]/5qq1[3:1],,,,,,3b/7b,,
{16}6-1[8:1],,6,,2v5>8b[32:13],,2,,8,,8,,8,7,6,5,
{16}4-8[8:1],,4,,3-1[32:4],,3,,{16}7,6,5,4,{24}8,7,6,5,4,3,
{16}2-5[8:1],,2,,6v1<4b[32:13],,6,,4,,4,,4,3,2,1,
{16}8-4[8:1],,8,,7-5[32:4],,7,,{16}3,2,1,8,{24}4,3,2,1,8,7,
{16}6-3[8:1],,6,,2-7[8:1],,2,,5<2[20:6],,5,,1>5[4:1],,1,,,,7,,
{16}8,,1,,2-5[8:1]/6-1[8:1],,,,{32}2/6,,,,,,,,3xv8[7:1]/7x,,,,,,,,
{8}8>6[5:1],7,6-1[8:1]*-3[8:1],,A6,,
{16}8x/2x,7,6,5,8/4,1,2,3,{24}7/4,6,5,4,3,2,1,8,7,6,5,4,
{16}2-6[8:1],,2,,2/8v3^8b[8:2],,8,,8^5v8b[4:1]/5,,5,,5,4,3,2,
{16}1v4[8:1],,1,,1/7-5[9:1],,7,,7/3,2,1,8,{24}4,3,2,1,8,7,
{16}6-2[8:1],,6,,6/4v7^4b[8:2],,4,,4^1v4b[4:1]/1,,1,,1,8,7,6,
{16}5v8[8:1],,5,,5/3-1[9:1],,3,,3/7,6,5,4,{24}8,7,6,5,4,3,
{16}2-7[8:1],,2,,6-3[8:1],,6,,1>6[20:6],,1,,5<1[4:1],,5,,
{16},,3,,4^2[7:1],,5-1[8:1],,4-8[8:1],,5^7[7:1],,4,,5,,
{8}3bx,2x/8x,1x/7x,8x/6x,7/5,6/4,5/3,4/2,
{16}1b/3b,4,5,6,7b,8/6,1/5,2/4,{32}3,4,5,6,7,8,1,2,3,4,5,6,7,8,1,2,
{16}4hx[32:1],{32}2x,1x,{16}5h[32:1],{32}2x,1x,
{16}6h[32:1],{32}2x,1x,{16}7h[32:1],{32}2x,1x,
{16}5hx[32:1],{32}3x,2x,{16}6h[32:1],{32}3x,2x,
{16}7h[32:1],{32}3x,2x,{16}8h[32:1],{32}3x,2x,
{16}6hx[32:1],{32}4x,3x,{16}7h[32:1],{32}4x,3x,
{16}8h[32:1],{32}4x,3x,{16}1h[32:1],{32}4x,3x,
{16}5hx[32:1],{32}3x,2x,{16}6h[32:1],{32}3x,2x,
{16}7h[32:1],{32}3x,2x,{16}8h[32:1],{32}3x,2x,
{32}7,6,5,4,1h,2h,3h,4h,{32}8,7,6,5,2h,3h,4h,5h,
{32}1,8,7,6,3h,4h,5h,6h,
{64}B8,E8,A7,D7,B6,E6,A5,D5,
{64}B4,E4,A3,D3,B2,E2,A1,D1,
{96}B7/E7,,,A6/D6,,,B5/E5,,,A4/D4,,,
{96}B3/E3,,,A2/D2,,,B1/E1,,,A8/D8,,,
{8}7bx/1bx,6bx/2bx,5bx/3bx,4bx,5bx/3bx,6bx/2bx,
{512}7bxp4-2-8<4b[8:19],1bxq4-6-8>4[8:19],,,{128},,,{32},,,{8},,,{2},,,
