&title=非実空想アムネジア
&artist=『ハピメア REGRET END』 オープニング
&first=0.026
&des=Tane
&lv_5=12+
&inote_5=(124){1},,
{4}1pp2[8:2],,8qq6[8:2],,
{16}1>6[8:2],,,6,
,,7,,
7p3[4:1],,,2,
,,1,,
{4}1-4[4:1],6,{16}6V84[8:2],,,4,
,,3,,
{16}2,,2,1,
,4V25[4:1]/6V84[4:1],,,
{8},,,,
{4}8p3[8:2],,1q7[8:2],,
{16}8<3[8:2],,,3,
,,2,,
2q6[4:1],,,7,
,,8,,
{4}8-4[4:1],3,{16}3V15[8:2],,,5,
,,6,,
{16}7,,7,8w4[8:1],
,17,,,
,,,,
4qq3[8:2],5,3,6,
{16}4,,,6h[16:7],
,,3h[8:2],,
{8},,36,45,
{16}36,,4,5-8[8:1],
,36,,4,{16},,,,
,,,,
{16}46,,3,4,
,,6,,
47,,3,5,
,,6,,
{16}48,,3,5,
,,6,,
7,7,4,4,
6,,5,,
{16}4/6pp6[4:1],,,4,
,,3,,
2,,2,4,
,,35,,
{16}6pp6[4:1],,,4,
,,3,,
2,2,5,5,
3,4,3,4,
{16}3,,6,5,
,,3,,
52,,6,4,
,,3,,
{16}51,,6,4,
,,3,,
2,2,5,5,
3,,4,,
{16}5/3qq3[4:1],,,5,
,,6,,
7,,7,5,
,,64,,
{16}3s7[4:1],6,2,7,
3,,,,
8b,,,,
,,,,
{16}1,7,3,5,
1V35[8:3],,,,
5h[8:1],,,,
7h[8:1],,,,
{16}8,2,6,4,
8V64[8:3],,,,
4h[8:1],,,,
2h[8:1],,,,
{16}1,5,3,7,
1V35[4:1],,,,
5V71[4:1],,,,
1,,,,
{16}5-1[8:1],,,,
5/3qq6[4:1],,,,
31,,,,
,,,,
{16}8,4,6,2,
8z4[4:1],,1,1h[16:3],
,,,,
1,,1,,
{16}2-7[8:1]/8,,,,
,,6,,
1/6-1[8:1],,,,
,,2,,
{16}3-6[8:1],,8,8h[16:3],
,,,,
7<3[4:1],,,,
8,,1,,
{16}2q5[4:1],,,,
,,,,
,,,,
8p4[8:1],2,6,4,
{4}8bv3[8:1],8bq5[8:1],8b,{16}3-1[8:1],5,1,7,
{16}3^6[8:1],,5,5,
3-1[8:1],,8,,
3^6[8:1],,5,5,
3-8[8:1],,7,,
{16}3-7[8:1],,6,6,
3,,5,5,
3^6[8:1],,6^3[8:1],,
,,,,
{16},,,,
45,,27,,
18,,2,1,
,7,8,,
{16}18,,36,3^6[8:1]/6,
,81,,,
,,,,
{16}6-8[8:1],4,8,2,
{16}6^3[8:1],,,,
6-8[8:1]/2,,,,
6^3[8:1],,4,4,
6-1[8:1],,2,,
{16}6-2[8:1],,3,3,
6,,4,4,
6V82[8:1],,4-8[8:1],,
,,,,
{16},,,,
54,,72,,
81,,7,8,
,2,1,,
{16}81,,27,2v4[8:1]/7v4[8:1],
,18,,,
,,,,
1,7,3,5h[16:13],
{16}2b,,,6b,
,,8b,,
,,,,
,,3,,
{16}45,,6,5,
,3,,1h[16:7],
,,6,,
3,,5,,
{16}6h[4:2],,,,
5,,4,,
3h[4:3],,6,,
5,,4,,
{4}2b,1b,{16}8b,8,1,{32}1,2,
3,4,5,,
,,,,
{8}6<2[4:1]/3h[8:3],,,,
4>8[4:1],,,,
{16}7,,7,8,
,16,,2pp1[4:1]/5,
,,6,,
7,,8,,
{16}7h[16:3],,,5h[16:3],
,,4^7[8:1],,
3h[4:1],,,,
,,,,
{16}7h[16:3],,,5h[16:3],
,,4q8[8:1],,
2h[4:1],,,,
,,,,
{8}3>7[4:1]/6h[8:3],,,,
5<1[4:1],,,,
{16}2,,2,1,
,83,,7qq8[4:1]/4,
,,1,,
2,,3,,
{16}2h[16:3],,,4h[16:3],
,,5^2[8:1],,
6h[4:1],,,,
,,,,
{16}1,,6,5,
,75,,24,
,3,4,,
45,,27,,
{16}8b,1,7,8b,
6,6,8b,,
1b,8,2,1b,
3,3,1b,,
{16}6b,4,7,8b,
6,6,8b,,
3b,5,2,1b,
3,3,1b,,
{16}5b,4,7,8b,
6,6,8b,,
4b,5,2,1b,
3,3,1b,,
{16}4b/5b,,7,7/8b,
,2,2/1b,8,
8/1b,,,,
,,,,
