&title=ouroboros -twin stroke of the end-[DX]
&artist=Cranky VS MASAKI
&first=0.02
&des=サファ太ァフサ
&des_5=サファ太ァフサ
&lv_5=14?
&inote_5=(188){4},2b/6bh[1:2],{1},{4},,,Ch[1:1],
,,,8<5[4:3],
,,,B4/B5/E5,
3h[4:1],{16}4,{8},{16}4/5,
{8},5/6,{4}5/6h[4:1],{8}4,4,,3/5,
,{24}E6,B5,B4,{4}E4,,{8}6,5,
3,2,6,5,3,2,7,6,
4,3h[4:1]/5h[4:1],{4},{8}4b/5b,{16}4,5,3,6,3,6,
2,7,2,7,{24}1x,8x,1x,8x,1x,8x,1x,8x,1x,8x,1x,8x,1x-5[8:1],8x,1x,8x,1x,8x,
{4}1bx,4b/6b,{16}5,4,{8}5,{16}4/7h[16:3],{8},{16}6h[16:3],
{8},5,4/5,{16}3,4,{8}3,2/5,{24}E3,B3,B4,E5,{12},{8}8,
8,{4}1b/7b,{16}3,4,{8}3,{16}5/2h[16:3],{8},{16}3h[16:3],
{8},4,4/5,{16}6,5,{8}6,4/7,{24}E7,B6,B5,E5,{12},{4}2b/8b,
1bxh[8:1]/7bxh[8:1],{16}3,4,{8}2,{16}5/1h[16:3],{8},{16}7h[16:3],
{8},5,4/6,{16}7,5,{8}7,4/8,{24}E7,B6,B5,E5,{12},{8}1,
1,{4}2b/8b,{16}7,5,{8}6,{16}3h[8:1]/5h[8:1],{8},{16}2h[8:1]/4h[8:1],
{8},1/5,{4}1/5,{8}2/8,3/7,{24}6,4,6,4,{12},{4}3-8[8:1]/7-4[8:1],
3b/7b,{8}1/5,2/6,{16}3/7h[16:3],{8},{16}5h[16:3],
{8},6,{4}4x/7x,{8}2/5,2/5,{24}3,4,3,4,{12},{8}3x/4x,
4/5,{4}5/6b-1[8:1],{8}4/6,3,{16}2h[16:3],{8},{16}4h[16:3],
{8},3,{4}2/5,{8}4/7,4/7,{24}6,5,6,5,{12},{8}4/8,
6,3h[4:1],4,5,3h[4:1],5,6,
4h[4:1],6,7h[4:1],5,3,6h[4:1],4,2,
1/5,1/5,2/4,{16}3,5,3,5,{8}3h[8:1],{16}6,5,{8}6,
{16}3,4,{8}3h[8:1],{12}A7,A6,A5,A2,A3,A4,5,5,5,
{4}4b/6b,2h[4:1]/4h[4:1],{8},1/5,{12}2h[6:1],,4h[6:1],
,3-7-1-5[3:2],{16},,,{48},{8}7x,,5x,,6x,
,7,{4}5h[4:1]/7bh[4:1],{8},5/6,{12}4x,4x,4x,
{4}3x/5x,{24}2-4[8:1],6,2,6,2,6,{2}2-8v6[8:3],
{4},5h[4:1]/7h[4:1],{8},4/8,{12}7h[6:1],,5h[6:1],
,6-2-8-4[3:2],{16},,,{48},{8}2x,,4x,,3x,
,2,{4}2bh[4:1]/4h[4:1],{8},2/4,{12}5x,5x,5x,
{4}4x/6x,{24}7-5[8:1],3,7,3,7,3,{2}7-1v3[8:3],
{4},2b/5bh[1:2],,,,4,
4,3,
3,{32}3,4h[32:23],{4},{16},,,{32}6,5h[32:7],{4},{16},,,3,
5,3,5,4,6,4,6,5-8[8:1],6,5,6,
{4}5b,{16}1/7,2,3,5,6,7,1,2,3,5,6,7,
2,3,4,6,7,8,2,3,4,6,7,8,2,1,2,1,
3,4,3,4,{4}2bh[4:3],{32}E6,E5,E4,E3,E2,E1,E8,E7,E6,E5,E4,E3,E2,E1,E8,E7,
{4}B5/A5/E6/D6,{16}3h[8:1]/4h[8:1],{8},{16}2h[8:1]/5h[8:1],{8},1/6,1/6,2/7,
3/8,3/8,{12}4,4,6,5,5,7,6,6,8,
5,5,1,3,3,4,2,2,1,4,4,8,
{4}5/7,{16}3,4,,6,{8}5,{16}2,4,,7,{8}5,
4/6,4/6,{24}3,2,1,8,7,6,{8}5x,4x/6x,{16}2,1,{8}2,
{4}3b/8b,{16}2-4[8:1],{8},{16}4,{8},5-1[8:1],{16},3,{8},3,
2,{16}8/1-5[8:1],{8},{16}7,{8},6-8[8:1],{16},2,{8},{4}4,
{16}3,8,3,7,3,6,3,5,2,4,2,3,
2,1,2,1,3h[8:1],{8},{16}3h[8:1],{8},2/4,{16}5h[8:1],{8},{16}5h[8:1],
{8},4/6,{16}7-5[8:1],{8},{16}5,{8},4-8[8:1],{16},6,{8},6,
7,{16}1/8-4[8:1],{8},{16}2,{8},3-1[8:1],{16},7,{8},{4}5x,
{16}6,1,6,2,6,3,6,4,7,5,7,6,
7,8,7,8,{8}6b,{16}1,5,2,4,2,4,3,3,5,5,
4,4,6,6,{8}3-6[8:1],3,7-2[8:1],7,4-1[8:1],4,
8,8,2/8,3/7,4/6,3/5,2/6,1/7,
{16}8x-4[8:1],8x,8x,8x,{384}8bx,Cf,{1},{4},,,{16},,,{64},,,{192},,{12}A7,
E7,E6,A8,B8,C,A1,E2,E3,
{4}B4/E4/E5,{12}A2,E3,E4,A1,B1,C,A8,E8,E7,
{4}B5/E5/E6,3q1[4:3]/7p1[4:3],{1},{4}2/8,
{8}2/5,{16}3,5,
{8}4>1[8:1],5/6,{4}4b/7-3[8:1],{8}7,{16}1,1,{8}4,{16}2,2,
{8}5,4/6,3/7,{16}2,1,{8}3h[8:1],{16}4,2,{8}6h[8:1],{16}5,7,
{8}1>4[8:1],5,{4}1b/6-2[8:1],{8}6,{16}4,4,{8}1,{16}3,3,
{8}8,1/7,2/6,{16}3,4,{8}2h[8:1],{16}1,3,{8}7h[8:1],{16}8,6,
{8}1-3[8:1],{16}5,5,{8}1b-7[8:1],{16}4,4,{8}1>3[8:1],{16}6,6,{8}1<7[8:1],{16}5,5,
{8}1-4[8:1],{16}6,6,{8}1-5[8:1],{16}5,5,{8}1,{16}6,6,{8}5x,{16}4,6,
3,7,2,8,{4}Cf,{16}1,2,3,4,8/5h[16:3],{8},{16}6,
{8},3/4,2/5,{16}7,8,,6,{8}5,4/5,{16}2,4,
{8}2>5[8:1],1/6,{4}2b/8-4[8:1],{8}1/8,{16}2,2,{8}5x,{16}4,4,
{8}8,1/7,2/6,{16}3,4,{8}2h[8:1],{16}1,3,{8}7h[8:1],{16}8,6,
{8}1-5[8:1],2/8,{4}1b/7-3[8:1],{8}7/8,{16}1,1,{8}4,{16}2,2,
{8}5,4/6,3/7,{16}2,1,{8}3h[8:1],{16}4,2,{8}6h[8:1],{16}5,7,
{8}4>2[8:1],{16}8,8,{8}4b,{16}6,6,{8}1-5[8:1],{16}7,7,{8}1b,{16}8,8,
{8}4-8[8:1],{16}7,7,{8}4b,{16}5,5,{8}2b-6[8:1],7,{4}2b-4[8:1]/8b-4[8:1],
2b/8b,{8}3x/4x,{16}3,4,2,5,{8}1,3x/7x,{16}6,5,
7,4,{8}8h[8:1],{32}1,2,3,4,5,6,7,8,1w5[8:1],2,3,4,5,6,7,8,{4}1,
3b/7b,{8}2-5[8:1],8-4[8:1],2,8,{16}1h[8:1],{8},{16}2h[8:1]/4h[8:1],
{8},3/5,6-4[8:1],2-6[8:1],6,2,{16}8h[8:1],{8},{16}5h[8:1]/7h[8:1],
{8},4/6,3-8[8:1],4-7[8:1],3,4,{16}1h[8:1],{8},{16}2h[8:1]/8h[8:1],
{8},3/7,3/7,{16}6,5,{8}6-2>5-8[8:3],7,{4}2x/6x,
,1b/7bh[4:1],{32}1,2,3,4,5,6,7,8,1,2,3,4,5,6,7,8,
{4}1b/Cf,{12}8,8,8,1,1,1,{48}7,{24},{48}6,{24},{16}5,4,
1,2,3,4,{8}5x/7x,8x,1x/7x,6/2-6-2[4:1],,8,
{4}8,{16}7,1,7,1,{8}7,2/6,{24}E6,B5,B4,Cf/E4,{3},{8}1/2,
3/8,4/7,{24}5,6,5,{16}6h[16:3],{8},{16}7h[16:3],
{8},8,7/8,1/6,2/5,{24}4,3,4,{16}3h[16:3],{8},{16}2h[16:3],
{8},1,3/8,4/7,5/6,{24}4,5,3,{16}4h[16:3],{8},{16}1x,
{8},7x/8x,1/6,2/5,3/4,{24}5,4,6,{16}5h[16:3],{8},{16}7x,
{8},2x/6x,{16}1,8,1,8,{32}1,2,{16}3h[8:1],,{32}7,6,{8}5h[8:1],{32}2,3,{16}4h[8:1],
,{32}8,7,{8}6h[8:1],{32}2,E3,B3,B4,{16},{32}7,E7,B6,B5,{16},{32}1,E2,B2,B3,{16},{32}8,E8,B7,B6,{16},{8}4,
4,4b/5b,{16}3,4,{8}2,1/5,{16}7,8,{8}6,
1/5,{16}2,4,{8}3,4/8,{16}7,5,{8}6,{24}3,4,3,4,{12},{4}1b/7b,
{16}2,3,4,1,2-6[8:1],3,{8}4,{4}2/6x,
{16}7,6,5,8,7-3[8:1],6,{8}5,{4}3x/7,{16}1,2,3,8,
1-5[8:1],2,{8}3,{4}1/5x,{16}7,5,7,5,8-4b[8:1],5,8,5,
{4}8>7[4:1],{32}E8,E1,E2,E3,E4,E5,E6,E7,D8,D1,D2,D3,D4,D5,D6,D7,{4}E1/D1/B8/E8/A8f/D8,
{16}3,4,3,4,2-5[8:1],5,2,5,{4}2,{16}7,5,7,5,
8-4[8:1],4,8,4,{4}8,{16}5,3,6,2,{8}8-3[8:1]*-5[8:1],1/7,
{4}8b,{16}2b,4,3,5,4,5,3,4,{8}2h[8:1],{24}1,8,7,
{8}4/6b,{16}6,4,5,4,6,5,{8}7h[8:1],{24}8,1,2,{8}3b/5,{16}3,5,
4,5,3,4,{8}2h[8:1],{24}1,8,7,{8}4/6b,{16}3,4,{8}1w5[8:1],2/8,
{4}1,{16}6bx,5x,7x,3b,4,2,6b,5,{8}7bh[8:1],{24}1,2,3,
{16}6b,5,7,3b,4,2,7b,8,{8}6bh[8:1],{24}2,3,4,{16}7b,8,6,3b,
4,2,7b,1,{4}2bx/6b,{24}1,8,1,8,1,8,1,8,1,8,1,8,
2-6[8:1],7,2,7,2,7,{384}2b<5>1[1:2],Cf,{1},{4},,,{16},,,{64},,,{192},,{4}1bx<1b[4:7],
{1},,{4}1x,
{16}2/4,{8},{16}3/5,
{8},4/6,{4}4/6h[4:1],{8}5,5h[4:1],,7,
,{24}E6,B5,B4,{4}E4,,{8}3h[8:3],6,
5,4,6h[8:3],3,4,5,4/7-4-2[4:1],7/4-1[8:1],
{2},{8}4b/5b,{16}4,5,3,6,3,6,
2,7,2,7,{24}1x,8x,1x,8x,1x,8x,1x,8x,1x,8x,1x,8x,1x-5[8:1],8x,1x,8x,1x,8x,
{4}1bx,4b/6b,{16}5,4,{8}5,{16}4/7h[16:3],{8},{16}6h[16:3],
{8},5,4/5,{16}3,4,{8}3,2/5,{24}E3,B3,B4,E5,{12},{8}8,
8,{4}1b/7b,{16}3,4,{8}3,{16}5/2h[16:3],{8},{16}3h[16:3],
{8},4,4/5,{16}6,5,{8}6,4/7,{24}E7,B6,B5,E5,{12},{4}2b/8b,
1bxh[8:1]/7bxh[8:1],{16}3,4,{8}2,{16}5/1h[16:3],{8},{16}7h[16:3],
{8},5,4/6,{16}7,5,{8}7,4/8,{24}E7,B6,B5,E5,{12},{8}1,
1,{4}2b/8b,{16}7,5,{8}6,{16}3h[8:1]/5h[8:1],{8},{16}2h[8:1]/4h[8:1],
{8},1/5,{4}1/5,{8}2/8,3/7,{24}6,4,6,4,{12},{4}3-8[8:1]/7-4[8:1],
3b/7b,{8}1/5,2/6,{16}3/7h[16:3],{8},{16}5h[16:3],
{8},6,{4}4x/7x,{8}2/5,2/5,{24}3,4,3,4,{12},{8}3x/4x,
4/5,{4}5/6b-1[8:1],{8}4/6,3,{16}2h[16:3],{8},{16}4h[16:3],
{8},3,{4}2/5,{8}4/7,4/7,{24}6,5,6,5,{12},{8}4/8,
6,3h[4:1],4,5,3h[4:1],5,6,
4h[4:1],6,7h[4:1],5,3,6h[4:1],4,2,
1/5,1/5,2/4,{16}3,5,3,5,{8}3h[8:1],{16}6,5,{8}6,
{16}3,4,{8}3h[8:1],{12}A7,A6,A5,A2,A3,A4,5,5,5,
{4}4b/6b,2h[4:1]/4h[4:1],{8},1/5,{12}2h[6:1],,4h[6:1],
,3-7-1-5[3:2],{16},,,{48},{8}7x,,5x,,6x,
,7,{4}5h[4:1]/7bh[4:1],{8},5/6,{12}4x,4x,4x,
{4}3x/5x,{24}2-4[8:1],6,2,6,2,6,{2}2-8v6[8:3],
{4},5h[4:1]/7h[4:1],{8},4/8,{12}7h[6:1],,5h[6:1],
,6-2-8-4[3:2],{16},,,{48},{8}2x,,4x,,3x,
,2,{4}2bh[4:1]/4h[4:1],{8},2/4,{12}5x,5x,5x,
{4}4x/6x,{24}7-5[8:1],3,7,3,7,3,{2}7-1v3[8:3],
{4},2b/5bh[1:2],,,,4,
4,3,
3,{32}3,4h[32:23],{4},{16},,,{32}6,5h[32:7],{4},{16},,,3,
5,3,5,4,6,4,6,5-8[8:1],6,5,6,
{4}5b,{16}1/7,2,3,5,6,7,1,2,3,5,6,7,
2,3,4,6,7,8,2,3,4,6,7,8,2,1,2,1,
3,4,3,4,{4}2bh[4:3],{32}E6,E5,E4,E3,E2,E1,E8,E7,E6,E5,E4,E3,E2,E1,E8,E7,
{4}B5/A5/E6/D6,{16}3h[8:1]/4h[8:1],{8},{16}2h[8:1]/5h[8:1],{8},1/6,1/6,2/7,
3/8,3/8,{12}4,4,6,5,5,7,6,6,8,
5,5,1,3,3,4,2,2,1,4,4,8,
{4}5/7,{16}3,4,,6,{8}5,{16}2,4,,7,{8}5,
4/6,4/6,{24}3,2,1,8,7,6,{8}5x,4x/6x,{16}2,1,{8}2,
{4}3b/8b,{16}2-4[8:1],{8},{16}4,{8},5-1[8:1],{16},3,{8},3,
2,{16}8/1-5[8:1],{8},{16}7,{8},6-8[8:1],{16},2,{8},{4}4,
{16}3,8,3,7,3,6,3,5,2,4,2,3,
2,1,2,1,3h[8:1],{8},{16}3h[8:1],{8},2/4,{16}5h[8:1],{8},{16}5h[8:1],
{8},4/6,{16}7-5[8:1],{8},{16}5,{8},4-8[8:1],{16},6,{8},6,
7,{16}1/8-4[8:1],{8},{16}2,{8},3-1[8:1],{16},7,{8},{4}5x,
{16}6,1,6,2,6,3,6,4,7,5,7,6,
7,8,7,8,{8}6b,{16}1,5,2,4,2,4,3,3,5,5,
4,4,6,6,{8}3-6[8:1],3,7-2[8:1],7,4-1[8:1],4,
8,8,2/8,3/7,4/6,3/5,2/6,1/7,
{16}8x-4[8:1],8x,8x,8x,{384}8bx,Cf,{1},{4},,,{16},,,{64},,,{192},,{12}A7,
E7,E6,A8,B8,C,A1,E2,E3,
{4}B4/E4/E5,{12}A2,E3,E4,A1,B1,C,A8,E8,E7,
{4}B5/E5/E6,3q1[4:3]/7p1[4:3],{1},{4}2/8,
{8}2/5,{16}3,5,
{8}4>1[8:1],5/6,{4}4b/7-3[8:1],{8}7,{16}1,1,{8}4,{16}2,2,
{8}5,4/6,3/7,{16}2,1,{8}3h[8:1],{16}4,2,{8}6h[8:1],{16}5,7,
{8}1>4[8:1],5,{4}1b/6-2[8:1],{8}6,{16}4,4,{8}1,{16}3,3,
{8}8,1/7,2/6,{16}3,4,{8}2h[8:1],{16}1,3,{8}7h[8:1],{16}8,6,
{8}1-3[8:1],{16}5,5,{8}1b-7[8:1],{16}4,4,{8}1>3[8:1],{16}6,6,{8}1<7[8:1],{16}5,5,
{8}1-4[8:1],{16}6,6,{8}1-5[8:1],{16}5,5,{8}1,{16}6,6,{8}5x,{16}4,6,
3,7,2,8,{4}Cf,{16}1,2,3,4,8/5h[16:3],{8},{16}6,
{8},3/4,2/5,{16}7,8,,6,{8}5,4/5,{16}2,4,
{8}2>5[8:1],1/6,{4}2b/8-4[8:1],{8}1/8,{16}2,2,{8}5x,{16}4,4,
{8}8,1/7,2/6,{16}3,4,{8}2h[8:1],{16}1,3,{8}7h[8:1],{16}8,6,
{8}1-5[8:1],2/8,{4}1b/7-3[8:1],{8}7/8,{16}1,1,{8}4,{16}2,2,
{8}5,4/6,3/7,{16}2,1,{8}3h[8:1],{16}4,2,{8}6h[8:1],{16}5,7,
{8}4>2[8:1],{16}8,8,{8}4b,{16}6,6,{8}1-5[8:1],{16}7,7,{8}1b,{16}8,8,
{8}4-8[8:1],{16}7,7,{8}4b,{16}5,5,{8}2b-6[8:1],7,{4}2b-4[8:1]/8b-4[8:1],
2b/8b,{8}3x/4x,{16}3,4,2,5,{8}1,3x/7x,{16}6,5,
7,4,{8}8h[8:1],{32}1,2,3,4,5,6,7,8,1w5[8:1],2,3,4,5,6,7,8,{4}1,
3b/7b,{8}2-5[8:1],8-4[8:1],2,8,{16}1h[8:1],{8},{16}2h[8:1]/4h[8:1],
{8},3/5,6-4[8:1],2-6[8:1],6,2,{16}8h[8:1],{8},{16}5h[8:1]/7h[8:1],
{8},4/6,3-8[8:1],4-7[8:1],3,4,{16}1h[8:1],{8},{16}2h[8:1]/8h[8:1],
{8},3/7,3/7,{16}6,5,{8}6-2>5-8[8:3],7,{4}2x/6x,
,1b/7bh[4:1],{32}1,2,3,4,5,6,7,8,1,2,3,4,5,6,7,8,
{4}1b/Cf,{12}8,8,8,1,1,1,{48}7,{24},{48}6,{24},{16}5,4,
1,2,3,4,{8}5x/7x,8x,1x/7x,6/2-6-2[4:1],,8,
{4}8,{16}7,1,7,1,{8}7,2/6,{24}E6,B5,B4,Cf/E4,{3},{8}1/2,
3/8,4/7,{24}5,6,5,{16}6h[16:3],{8},{16}7h[16:3],
{8},8,7/8,1/6,2/5,{24}4,3,4,{16}3h[16:3],{8},{16}2h[16:3],
{8},1,3/8,4/7,5/6,{24}4,5,3,{16}4h[16:3],{8},{16}1x,
{8},7x/8x,1/6,2/5,3/4,{24}5,4,6,{16}5h[16:3],{8},{16}7x,
{8},2x/6x,{16}1,8,1,8,{32}1,2,{16}3h[8:1],,{32}7,6,{8}5h[8:1],{32}2,3,{16}4h[8:1],
,{32}8,7,{8}6h[8:1],{32}2,E3,B3,B4,{16},{32}7,E7,B6,B5,{16},{32}1,E2,B2,B3,{16},{32}8,E8,B7,B6,{16},{8}4,
4,4b/5b,{16}3,4,{8}2,1/5,{16}7,8,{8}6,
1/5,{16}2,4,{8}3,4/8,{16}7,5,{8}6,{24}3,4,3,4,{12},{4}1b/7b,
{16}2,3,4,1,2-6[8:1],3,{8}4,{4}2/6x,
{16}7,6,5,8,7-3[8:1],6,{8}5,{4}3x/7,{16}1,2,3,8,
1-5[8:1],2,{8}3,{4}1/5x,{16}7,5,7,5,8-4b[8:1],5,8,5,
{4}8>7[4:1],{32}E8,E1,E2,E3,E4,E5,E6,E7,D8,D1,D2,D3,D4,D5,D6,D7,{4}E1/D1/B8/E8/A8f/D8,
{16}3,4,3,4,2-5[8:1],5,2,5,{4}2,{16}7,5,7,5,
8-4[8:1],4,8,4,{4}8,{16}5,3,6,2,{8}8-3[8:1]*-5[8:1],1/7,
{4}8b,{16}2b,4,3,5,4,5,3,4,{8}2h[8:1],{24}1,8,7,
{8}4/6b,{16}6,4,5,4,6,5,{8}7h[8:1],{24}8,1,2,{8}3b/5,{16}3,5,
4,5,3,4,{8}2h[8:1],{24}1,8,7,{8}4/6b,{16}3,4,{8}1w5[8:1],2/8,
{4}1,{16}6bx,5x,7x,3b,4,2,6b,5,{8}7bh[8:1],{24}1,2,3,
{16}6b,5,7,3b,4,2,7b,8,{8}6bh[8:1],{24}2,3,4,{16}7b,8,6,3b,
4,2,7b,1,{4}2bx/6b,{24}1,8,1,8,1,8,1,8,1,8,1,8,
2-6[8:1],7,2,7,2,7,{384}2b<5>1[1:2],Cf,{1},{4},,,{16},,,{64},,,{192},,{4}1bx<1b[4:7],
{1},,{4}1x,
{16}2/4,{8},{16}3/5,
{8},4/6,{4}4/6h[4:1],{8}5,5h[4:1],,7,
,{24}E6,B5,B4,{4}E4,,{8}3h[8:3],6,
5,4,6h[8:3],3,4,5,4/7-4-2[4:1],7/4-1[8:1],
{2},{8}4b/5b,{16}4,5,3,6,3,6,
2,7,2,7,{24}1x,8x,1x,8x,1x,8x,1x,8x,1x,8x,1x,8x,1x-5[8:1],8x,1x,8x,1x,8x,
{4}1bx,4b/6b,{16}5,4,{8}5,{16}4/7h[16:3],{8},{16}6h[16:3],
{8},5,4/5,{16}3,4,{8}3,2/5,{24}E3,B3,B4,E5,{12},{8}8,
8,{4}1b/7b,{16}3,4,{8}3,{16}5/2h[16:3],{8},{16}3h[16:3],
{8},4,4/5,{16}6,5,{8}6,4/7,{24}E7,B6,B5,E5,{12},{4}2b/8b,
1bxh[8:1]/7bxh[8:1],{16}3,4,{8}2,{16}5/1h[16:3],{8},{16}7h[16:3],
{8},5,4/6,{16}7,5,{8}7,4/8,{24}E7,B6,B5,E5,{12},{8}1,
1,{4}2b/8b,{16}7,5,{8}6,{16}3h[8:1]/5h[8:1],{8},{16}2h[8:1]/4h[8:1],
{8},1/5,{4}1/5,{8}2/8,3/7,{24}6,4,6,4,{12},{4}3-8[8:1]/7-4[8:1],
3b/7b,{8}1/5,2/6,{16}3/7h[16:3],{8},{16}5h[16:3],
{8},6,{4}4x/7x,{8}2/5,2/5,{24}3,4,3,4,{12},{8}3x/4x,
4/5,{4}5/6b-1[8:1],{8}4/6,3,{16}2h[16:3],{8},{16}4h[16:3],
{8},3,{4}2/5,{8}4/7,4/7,{24}6,5,6,5,{12},{8}4/8,
6,3h[4:1],4,5,3h[4:1],5,6,
4h[4:1],6,7h[4:1],5,3,6h[4:1],4,2,
1/5,1/5,2/4,{16}3,5,3,5,{8}3h[8:1],{16}6,5,{8}6,
{16}3,4,{8}3h[8:1],{12}A7,A6,A5,A2,A3,A4,5,5,5,
{4}4b/6b,2h[4:1]/4h[4:1],{8},1/5,{12}2h[6:1],,4h[6:1],
,3-7-1-5[3:2],{16},,,{48},{8}7x,,5x,,6x,
,7,{4}5h[4:1]/7bh[4:1],{8},5/6,{12}4x,4x,4x,
{4}3x/5x,{24}2-4[8:1],6,2,6,2,6,{2}2-8v6[8:3],
{4},5h[4:1]/7h[4:1],{8},4/8,{12}7h[6:1],,5h[6:1],
,6-2-8-4[3:2],{16},,,{48},{8}2x,,4x,,3x,
,2,{4}2bh[4:1]/4h[4:1],{8},2/4,{12}5x,5x,5x,
{4}4x/6x,{24}7-5[8:1],3,7,3,7,3,{2}7-1v3[8:3],
{4},2b/5bh[1:2],,,,4,
4,3,
3,{32}3,4h[32:23],{4},{16},,,{32}6,5h[32:7],{4},{16},,,3,
5,3,5,4,6,4,6,5-8[8:1],6,5,6,
{4}5b,{16}1/7,2,3,5,6,7,1,2,3,5,6,7,
2,3,4,6,7,8,2,3,4,6,7,8,2,1,2,1,
3,4,3,4,{4}2bh[4:3],{32}E6,E5,E4,E3,E2,E1,E8,E7,E6,E5,E4,E3,E2,E1,E8,E7,
{4}B5/A5/E6/D6,{16}3h[8:1]/4h[8:1],{8},{16}2h[8:1]/5h[8:1],{8},1/6,1/6,2/7,
3/8,3/8,{12}4,4,6,5,5,7,6,6,8,
5,5,1,3,3,4,2,2,1,4,4,8,
{4}5/7,{16}3,4,,6,{8}5,{16}2,4,,7,{8}5,
4/6,4/6,{24}3,2,1,8,7,6,{8}5x,4x/6x,{16}2,1,{8}2,
{4}3b/8b,{16}2-4[8:1],{8},{16}4,{8},5-1[8:1],{16},3,{8},3,
2,{16}8/1-5[8:1],{8},{16}7,{8},6-8[8:1],{16},2,{8},{4}4,
{16}3,8,3,7,3,6,3,5,2,4,2,3,
2,1,2,1,3h[8:1],{8},{16}3h[8:1],{8},2/4,{16}5h[8:1],{8},{16}5h[8:1],
{8},4/6,{16}7-5[8:1],{8},{16}5,{8},4-8[8:1],{16},6,{8},6,
7,{16}1/8-4[8:1],{8},{16}2,{8},3-1[8:1],{16},7,{8},{4}5x,
{16}6,1,6,2,6,3,6,4,7,5,7,6,
7,8,7,8,{8}6b,{16}1,5,2,4,2,4,3,3,5,5,
4,4,6,6,{8}3-6[8:1],3,7-2[8:1],7,4-1[8:1],4,
8,8,2/8,3/7,4/6,3/5,2/6,1/7,
{16}8x-4[8:1],8x,8x,8x,{384}8bx,Cf,{1},{4},,,{16},,,{64},,,{192},,{12}A7,
E7,E6,A8,B8,C,A1,E2,E3,
{4}B4/E4/E5,{12}A2,E3,E4,A1,B1,C,A8,E8,E7,
{4}B5/E5/E6,3q1[4:3]/7p1[4:3],{1},{4}2/8,
{8}2/5,{16}3,5,
{8}4>1[8:1],5/6,{4}4b/7-3[8:1],{8}7,{16}1,1,{8}4,{16}2,2,
{8}5,4/6,3/7,{16}2,1,{8}3h[8:1],{16}4,2,{8}6h[8:1],{16}5,7,
{8}1>4[8:1],5,{4}1b/6-2[8:1],{8}6,{16}4,4,{8}1,{16}3,3,
{8}8,1/7,2/6,{16}3,4,{8}2h[8:1],{16}1,3,{8}7h[8:1],{16}8,6,
{8}1-3[8:1],{16}5,5,{8}1b-7[8:1],{16}4,4,{8}1>3[8:1],{16}6,6,{8}1<7[8:1],{16}5,5,
{8}1-4[8:1],{16}6,6,{8}1-5[8:1],{16}5,5,{8}1,{16}6,6,{8}5x,{16}4,6,
3,7,2,8,{4}Cf,{16}1,2,3,4,8/5h[16:3],{8},{16}6,
{8},3/4,2/5,{16}7,8,,6,{8}5,4/5,{16}2,4,
{8}2>5[8:1],1/6,{4}2b/8-4[8:1],{8}1/8,{16}2,2,{8}5x,{16}4,4,
{8}8,1/7,2/6,{16}3,4,{8}2h[8:1],{16}1,3,{8}7h[8:1],{16}8,6,
{8}1-5[8:1],2/8,{4}1b/7-3[8:1],{8}7/8,{16}1,1,{8}4,{16}2,2,
{8}5,4/6,3/7,{16}2,1,{8}3h[8:1],{16}4,2,{8}6h[8:1],{16}5,7,
{8}4>2[8:1],{16}8,8,{8}4b,{16}6,6,{8}1-5[8:1],{16}7,7,{8}1b,{16}8,8,
{8}4-8[8:1],{16}7,7,{8}4b,{16}5,5,{8}2b-6[8:1],7,{4}2b-4[8:1]/8b-4[8:1],
2b/8b,{8}3x/4x,{16}3,4,2,5,{8}1,3x/7x,{16}6,5,
7,4,{8}8h[8:1],{32}1,2,3,4,5,6,7,8,1w5[8:1],2,3,4,5,6,7,8,{4}1,
3b/7b,{8}2-5[8:1],8-4[8:1],2,8,{16}1h[8:1],{8},{16}2h[8:1]/4h[8:1],
{8},3/5,6-4[8:1],2-6[8:1],6,2,{16}8h[8:1],{8},{16}5h[8:1]/7h[8:1],
{8},4/6,3-8[8:1],4-7[8:1],3,4,{16}1h[8:1],{8},{16}2h[8:1]/8h[8:1],
{8},3/7,3/7,{16}6,5,{8}6-2>5-8[8:3],7,{4}2x/6x,
,1b/7bh[4:1],{32}1,2,3,4,5,6,7,8,1,2,3,4,5,6,7,8,
{4}1b/Cf,{12}8,8,8,1,1,1,{48}7,{24},{48}6,{24},{16}5,4,
1,2,3,4,{8}5x/7x,8x,1x/7x,6/2-6-2[4:1],,8,
{4}8,{16}7,1,7,1,{8}7,2/6,{24}E6,B5,B4,Cf/E4,{3},{8}1/2,
3/8,4/7,{24}5,6,5,{16}6h[16:3],{8},{16}7h[16:3],
{8},8,7/8,1/6,2/5,{24}4,3,4,{16}3h[16:3],{8},{16}2h[16:3],
{8},1,3/8,4/7,5/6,{24}4,5,3,{16}4h[16:3],{8},{16}1x,
{8},7x/8x,1/6,2/5,3/4,{24}5,4,6,{16}5h[16:3],{8},{16}7x,
{8},2x/6x,{16}1,8,1,8,{32}1,2,{16}3h[8:1],,{32}7,6,{8}5h[8:1],{32}2,3,{16}4h[8:1],
,{32}8,7,{8}6h[8:1],{32}2,E3,B3,B4,{16},{32}7,E7,B6,B5,{16},{32}1,E2,B2,B3,{16},{32}8,E8,B7,B6,{16},{8}4,
4,4b/5b,{16}3,4,{8}2,1/5,{16}7,8,{8}6,
1/5,{16}2,4,{8}3,4/8,{16}7,5,{8}6,{24}3,4,3,4,{12},{4}1b/7b,
{16}2,3,4,1,2-6[8:1],3,{8}4,{4}2/6x,
{16}7,6,5,8,7-3[8:1],6,{8}5,{4}3x/7,{16}1,2,3,8,
1-5[8:1],2,{8}3,{4}1/5x,{16}7,5,7,5,8-4b[8:1],5,8,5,
{4}8>7[4:1],{32}E8,E1,E2,E3,E4,E5,E6,E7,D8,D1,D2,D3,D4,D5,D6,D7,{4}E1/D1/B8/E8/A8f/D8,
{16}3,4,3,4,2-5[8:1],5,2,5,{4}2,{16}7,5,7,5,
8-4[8:1],4,8,4,{4}8,{16}5,3,6,2,{8}8-3[8:1]*-5[8:1],1/7,
{4}8b,{16}2b,4,3,5,4,5,3,4,{8}2h[8:1],{24}1,8,7,
{8}4/6b,{16}6,4,5,4,6,5,{8}7h[8:1],{24}8,1,2,{8}3b/5,{16}3,5,
4,5,3,4,{8}2h[8:1],{24}1,8,7,{8}4/6b,{16}3,4,{8}1w5[8:1],2/8,
{4}1,{16}6bx,5x,7x,3b,4,2,6b,5,{8}7bh[8:1],{24}1,2,3,
{16}6b,5,7,3b,4,2,7b,8,{8}6bh[8:1],{24}2,3,4,{16}7b,8,6,3b,
4,2,7b,1,{4}2bx/6b,{24}1,8,1,8,1,8,1,8,1,8,1,8,
2-6[8:1],7,2,7,2,7,{384}2b<5>1[1:2],Cf,{1},{4},,,{16},,,{64},,,{192},,{4}1bx<1b[4:7],
{1},,{4}1x,
{16}2/4,{8},{16}3/5,
{8},4/6,{4}4/6h[4:1],{8}5,5h[4:1],,7,
,{24}E6,B5,B4,{4}E4,,{8}3h[8:3],6,
5,4,6h[8:3],3,4,5,4/7-4-2[4:1],7/4-1[8:1],
{2},{8}4b/5b,{16}4,5,3,6,3,6,
2,7,2,7,{24}1x,8x,1x,8x,1x,8x,1x,8x,1x,8x,1x,8x,1x-5[8:1],8x,1x,8x,1x,8x,
{4}1bx,4b/6b,{16}5,4,{8}5,{16}4/7h[16:3],{8},{16}6h[16:3],
{8},5,4/5,{16}3,4,{8}3,2/5,{24}E3,B3,B4,E5,{12},{8}8,
8,{4}1b/7b,{16}3,4,{8}3,{16}5/2h[16:3],{8},{16}3h[16:3],
{8},4,4/5,{16}6,5,{8}6,4/7,{24}E7,B6,B5,E5,{12},{4}2b/8b,
1bxh[8:1]/7bxh[8:1],{16}3,4,{8}2,{16}5/1h[16:3],{8},{16}7h[16:3],
{8},5,4/6,{16}7,5,{8}7,4/8,{24}E7,B6,B5,E5,{12},{8}1,
1,{4}2b/8b,{16}7,5,{8}6,{16}3h[8:1]/5h[8:1],{8},{16}2h[8:1]/4h[8:1],
{8},1/5,{4}1/5,{8}2/8,3/7,{24}6,4,6,4,{12},{4}3-8[8:1]/7-4[8:1],
3b/7b,{8}1/5,2/6,{16}3/7h[16:3],{8},{16}5h[16:3],
{8},6,{4}4x/7x,{8}2/5,2/5,{24}3,4,3,4,{12},{8}3x/4x,
4/5,{4}5/6b-1[8:1],{8}4/6,3,{16}2h[16:3],{8},{16}4h[16:3],
{8},3,{4}2/5,{8}4/7,4/7,{24}6,5,6,5,{12},{8}4/8,
6,3h[4:1],4,5,3h[4:1],5,6,
4h[4:1],6,7h[4:1],5,3,6h[4:1],4,2,
1/5,1/5,2/4,{16}3,5,3,5,{8}3h[8:1],{16}6,5,{8}6,
{16}3,4,{8}3h[8:1],{12}A7,A6,A5,A2,A3,A4,5,5,5,
{4}4b/6b,2h[4:1]/4h[4:1],{8},1/5,{12}2h[6:1],,4h[6:1],
,3-7-1-5[3:2],{16},,,{48},{8}7x,,5x,,6x,
,7,{4}5h[4:1]/7bh[4:1],{8},5/6,{12}4x,4x,4x,
{4}3x/5x,{24}2-4[8:1],6,2,6,2,6,{2}2-8v6[8:3],
{4},5h[4:1]/7h[4:1],{8},4/8,{12}7h[6:1],,5h[6:1],
,6-2-8-4[3:2],{16},,,{48},{8}2x,,4x,,3x,
,2,{4}2bh[4:1]/4h[4:1],{8},2/4,{12}5x,5x,5x,
{4}4x/6x,{24}7-5[8:1],3,7,3,7,3,{2}7-1v3[8:3],
{4},2b/5bh[1:2],,,,4,
4,3,
3,{32}3,4h[32:23],{4},{16},,,{32}6,5h[32:7],{4},{16},,,3,
5,3,5,4,6,4,6,5-8[8:1],6,5,6,
{4}5b,{16}1/7,2,3,5,6,7,1,2,3,5,6,7,
2,3,4,6,7,8,2,3,4,6,7,8,2,1,2,1,
3,4,3,4,{4}2bh[4:3],{32}E6,E5,E4,E3,E2,E1,E8,E7,E6,E5,E4,E3,E2,E1,E8,E7,
{4}B5/A5/E6/D6,{16}3h[8:1]/4h[8:1],{8},{16}2h[8:1]/5h[8:1],{8},1/6,1/6,2/7,
3/8,3/8,{12}4,4,6,5,5,7,6,6,8,
5,5,1,3,3,4,2,2,1,4,4,8,
{4}5/7,{16}3,4,,6,{8}5,{16}2,4,,7,{8}5,
4/6,4/6,{24}3,2,1,8,7,6,{8}5x,4x/6x,{16}2,1,{8}2,
{4}3b/8b,{16}2-4[8:1],{8},{16}4,{8},5-1[8:1],{16},3,{8},3,
2,{16}8/1-5[8:1],{8},{16}7,{8},6-8[8:1],{16},2,{8},{4}4,
{16}3,8,3,7,3,6,3,5,2,4,2,3,
2,1,2,1,3h[8:1],{8},{16}3h[8:1],{8},2/4,{16}5h[8:1],{8},{16}5h[8:1],
{8},4/6,{16}7-5[8:1],{8},{16}5,{8},4-8[8:1],{16},6,{8},6,
7,{16}1/8-4[8:1],{8},{16}2,{8},3-1[8:1],{16},7,{8},{4}5x,
{16}6,1,6,2,6,3,6,4,7,5,7,6,
7,8,7,8,{8}6b,{16}1,5,2,4,2,4,3,3,5,5,
4,4,6,6,{8}3-6[8:1],3,7-2[8:1],7,4-1[8:1],4,
8,8,2/8,3/7,4/6,3/5,2/6,1/7,
{16}8x-4[8:1],8x,8x,8x,{384}8bx,Cf,{1},{4},,,{16},,,{64},,,{192},,{12}A7,
E7,E6,A8,B8,C,A1,E2,E3,
{4}B4/E4/E5,{12}A2,E3,E4,A1,B1,C,A8,E8,E7,
{4}B5/E5/E6,3q1[4:3]/7p1[4:3],{1},{4}2/8,
{8}2/5,{16}3,5,
{8}4>1[8:1],5/6,{4}4b/7-3[8:1],{8}7,{16}1,1,{8}4,{16}2,2,
{8}5,4/6,3/7,{16}2,1,{8}3h[8:1],{16}4,2,{8}6h[8:1],{16}5,7,
{8}1>4[8:1],5,{4}1b/6-2[8:1],{8}6,{16}4,4,{8}1,{16}3,3,
{8}8,1/7,2/6,{16}3,4,{8}2h[8:1],{16}1,3,{8}7h[8:1],{16}8,6,
{8}1-3[8:1],{16}5,5,{8}1b-7[8:1],{16}4,4,{8}1>3[8:1],{16}6,6,{8}1<7[8:1],{16}5,5,
{8}1-4[8:1],{16}6,6,{8}1-5[8:1],{16}5,5,{8}1,{16}6,6,{8}5x,{16}4,6,
3,7,2,8,{4}Cf,{16}1,2,3,4,8/5h[16:3],{8},{16}6,
{8},3/4,2/5,{16}7,8,,6,{8}5,4/5,{16}2,4,
{8}2>5[8:1],1/6,{4}2b/8-4[8:1],{8}1/8,{16}2,2,{8}5x,{16}4,4,
{8}8,1/7,2/6,{16}3,4,{8}2h[8:1],{16}1,3,{8}7h[8:1],{16}8,6,
{8}1-5[8:1],2/8,{4}1b/7-3[8:1],{8}7/8,{16}1,1,{8}4,{16}2,2,
{8}5,4/6,3/7,{16}2,1,{8}3h[8:1],{16}4,2,{8}6h[8:1],{16}5,7,
{8}4>2[8:1],{16}8,8,{8}4b,{16}6,6,{8}1-5[8:1],{16}7,7,{8}1b,{16}8,8,
{8}4-8[8:1],{16}7,7,{8}4b,{16}5,5,{8}2b-6[8:1],7,{4}2b-4[8:1]/8b-4[8:1],
2b/8b,{8}3x/4x,{16}3,4,2,5,{8}1,3x/7x,{16}6,5,
7,4,{8}8h[8:1],{32}1,2,3,4,5,6,7,8,1w5[8:1],2,3,4,5,6,7,8,{4}1,
3b/7b,{8}2-5[8:1],8-4[8:1],2,8,{16}1h[8:1],{8},{16}2h[8:1]/4h[8:1],
{8},3/5,6-4[8:1],2-6[8:1],6,2,{16}8h[8:1],{8},{16}5h[8:1]/7h[8:1],
{8},4/6,3-8[8:1],4-7[8:1],3,4,{16}1h[8:1],{8},{16}2h[8:1]/8h[8:1],
{8},3/7,3/7,{16}6,5,{8}6-2>5-8[8:3],7,{4}2x/6x,
,1b/7bh[4:1],{32}1,2,3,4,5,6,7,8,1,2,3,4,5,6,7,8,
{4}1b/Cf,{12}8,8,8,1,1,1,{48}7,{24},{48}6,{24},{16}5,4,
1,2,3,4,{8}5x/7x,8x,1x/7x,6/2-6-2[4:1],,8,
{4}8,{16}7,1,7,1,{8}7,2/6,{24}E6,B5,B4,Cf/E4,{3},{8}1/2,
3/8,4/7,{24}5,6,5,{16}6h[16:3],{8},{16}7h[16:3],
{8},8,7/8,1/6,2/5,{24}4,3,4,{16}3h[16:3],{8},{16}2h[16:3],
{8},1,3/8,4/7,5/6,{24}4,5,3,{16}4h[16:3],{8},{16}1x,
{8},7x/8x,1/6,2/5,3/4,{24}5,4,6,{16}5h[16:3],{8},{16}7x,
{8},2x/6x,{16}1,8,1,8,{32}1,2,{16}3h[8:1],,{32}7,6,{8}5h[8:1],{32}2,3,{16}4h[8:1],
,{32}8,7,{8}6h[8:1],{32}2,E3,B3,B4,{16},{32}7,E7,B6,B5,{16},{32}1,E2,B2,B3,{16},{32}8,E8,B7,B6,{16},{8}4,
4,4b/5b,{16}3,4,{8}2,1/5,{16}7,8,{8}6,
1/5,{16}2,4,{8}3,4/8,{16}7,5,{8}6,{24}3,4,3,4,{12},{4}1b/7b,
{16}2,3,4,1,2-6[8:1],3,{8}4,{4}2/6x,
{16}7,6,5,8,7-3[8:1],6,{8}5,{4}3x/7,{16}1,2,3,8,
1-5[8:1],2,{8}3,{4}1/5x,{16}7,5,7,5,8-4b[8:1],5,8,5,
{4}8>7[4:1],{32}E8,E1,E2,E3,E4,E5,E6,E7,D8,D1,D2,D3,D4,D5,D6,D7,{4}E1/D1/B8/E8/A8f/D8,
{16}3,4,3,4,2-5[8:1],5,2,5,{4}2,{16}7,5,7,5,
8-4[8:1],4,8,4,{4}8,{16}5,3,6,2,{8}8-3[8:1]*-5[8:1],1/7,
{4}8b,{16}2b,4,3,5,4,5,3,4,{8}2h[8:1],{24}1,8,7,
{8}4/6b,{16}6,4,5,4,6,5,{8}7h[8:1],{24}8,1,2,{8}3b/5,{16}3,5,
4,5,3,4,{8}2h[8:1],{24}1,8,7,{8}4/6b,{16}3,4,{8}1w5[8:1],2/8,
{4}1,{16}6bx,5x,7x,3b,4,2,6b,5,{8}7bh[8:1],{24}1,2,3,
{16}6b,5,7,3b,4,2,7b,8,{8}6bh[8:1],{24}2,3,4,{16}7b,8,6,3b,
4,2,7b,1,{4}2bx/6b,{24}1,8,1,8,1,8,1,8,1,8,1,8,
2-6[8:1],7,2,7,2,7,{384}2b<5>1[1:2],Cf,{1},{4},,,{16},,,{64},,,{192},,{4}1bx<1b[4:7],
{1},,{4}1x,
{16}2/4,{8},{16}3/5,
{8},4/6,{4}4/6h[4:1],{8}5,5h[4:1],,7,
,{24}E6,B5,B4,{4}E4,,{8}3h[8:3],6,
5,4,6h[8:3],3,4,5,4/7-4-2[4:1],7/4-1[8:1],
{2},{8}4b/5b,{16}4,5,3,6,3,6,
2,7,2,7,{24}1x,8x,1x,8x,1x,8x,1x,8x,1x,8x,1x,8x,1x-5[8:1],8x,1x,8x,1x,8x,
{4}1bx,4b/6b,{16}5,4,{8}5,{16}4/7h[16:3],{8},{16}6h[16:3],
{8},5,4/5,{16}3,4,{8}3,2/5,{24}E3,B3,B4,E5,{12},{8}8,
8,{4}1b/7b,{16}3,4,{8}3,{16}5/2h[16:3],{8},{16}3h[16:3],
{8},4,4/5,{16}6,5,{8}6,4/7,{24}E7,B6,B5,E5,{12},{4}2b/8b,
1bxh[8:1]/7bxh[8:1],{16}3,4,{8}2,{16}5/1h[16:3],{8},{16}7h[16:3],
{8},5,4/6,{16}7,5,{8}7,4/8,{24}E7,B6,B5,E5,{12},{8}1,
1,{4}2b/8b,{16}7,5,{8}6,{16}3h[8:1]/5h[8:1],{8},{16}2h[8:1]/4h[8:1],
{8},1/5,{4}1/5,{8}2/8,3/7,{24}6,4,6,4,{12},{4}3-8[8:1]/7-4[8:1],
3b/7b,{8}1/5,2/6,{16}3/7h[16:3],{8},{16}5h[16:3],
{8},6,{4}4x/7x,{8}2/5,2/5,{24}3,4,3,4,{12},{8}3x/4x,
4/5,{4}5/6b-1[8:1],{8}4/6,3,{16}2h[16:3],{8},{16}4h[16:3],
{8},3,{4}2/5,{8}4/7,4/7,{24}6,5,6,5,{12},{8}4/8,
6,3h[4:1],4,5,3h[4:1],5,6,
4h[4:1],6,7h[4:1],5,3,6h[4:1],4,2,
1/5,1/5,2/4,{16}3,5,3,5,{8}3h[8:1],{16}6,5,{8}6,
{16}3,4,{8}3h[8:1],{12}A7,A6,A5,A2,A3,A4,5,5,5,
{4}4b/6b,2h[4:1]/4h[4:1],{8},1/5,{12}2h[6:1],,4h[6:1],
,3-7-1-5[3:2],{16},,,{48},{8}7x,,5x,,6x,
,7,{4}5h[4:1]/7bh[4:1],{8},5/6,{12}4x,4x,4x,
{4}3x/5x,{24}2-4[8:1],6,2,6,2,6,{2}2-8v6[8:3],
{4},5h[4:1]/7h[4:1],{8},4/8,{12}7h[6:1],,5h[6:1],
,6-2-8-4[3:2],{16},,,{48},{8}2x,,4x,,3x,
,2,{4}2bh[4:1]/4h[4:1],{8},2/4,{12}5x,5x,5x,
{4}4x/6x,{24}7-5[8:1],3,7,3,7,3,{2}7-1v3[8:3],
{4},2b/5bh[1:2],,,,4,
4,3,
3,{32}3,4h[32:23],{4},{16},,,{32}6,5h[32:7],{4},{16},,,3,
5,3,5,4,6,4,6,5-8[8:1],6,5,6,
{4}5b,{16}1/7,2,3,5,6,7,1,2,3,5,6,7,
2,3,4,6,7,8,2,3,4,6,7,8,2,1,2,1,
3,4,3,4,{4}2bh[4:3],{32}E6,E5,E4,E3,E2,E1,E8,E7,E6,E5,E4,E3,E2,E1,E8,E7,
{4}B5/A5/E6/D6,{16}3h[8:1]/4h[8:1],{8},{16}2h[8:1]/5h[8:1],{8},1/6,1/6,2/7,
3/8,3/8,{12}4,4,6,5,5,7,6,6,8,
5,5,1,3,3,4,2,2,1,4,4,8,
{4}5/7,{16}3,4,,6,{8}5,{16}2,4,,7,{8}5,
4/6,4/6,{24}3,2,1,8,7,6,{8}5x,4x/6x,{16}2,1,{8}2,
{4}3b/8b,{16}2-4[8:1],{8},{16}4,{8},5-1[8:1],{16},3,{8},3,
2,{16}8/1-5[8:1],{8},{16}7,{8},6-8[8:1],{16},2,{8},{4}4,
{16}3,8,3,7,3,6,3,5,2,4,2,3,
2,1,2,1,3h[8:1],{8},{16}3h[8:1],{8},2/4,{16}5h[8:1],{8},{16}5h[8:1],
{8},4/6,{16}7-5[8:1],{8},{16}5,{8},4-8[8:1],{16},6,{8},6,
7,{16}1/8-4[8:1],{8},{16}2,{8},3-1[8:1],{16},7,{8},{4}5x,
{16}6,1,6,2,6,3,6,4,7,5,7,6,
7,8,7,8,{8}6b,{16}1,5,2,4,2,4,3,3,5,5,
4,4,6,6,{8}3-6[8:1],3,7-2[8:1],7,4-1[8:1],4,
8,8,2/8,3/7,4/6,3/5,2/6,1/7,
{16}8x-4[8:1],8x,8x,8x,{384}8bx,Cf,{1},{4},,,{16},,,{64},,,{192},,{12}A7,
E7,E6,A8,B8,C,A1,E2,E3,
{4}B4/E4/E5,{12}A2,E3,E4,A1,B1,C,A8,E8,E7,
{4}B5/E5/E6,3q1[4:3]/7p1[4:3],{1},{4}2/8,
{8}2/5,{16}3,5,
{8}4>1[8:1],5/6,{4}4b/7-3[8:1],{8}7,{16}1,1,{8}4,{16}2,2,
{8}5,4/6,3/7,{16}2,1,{8}3h[8:1],{16}4,2,{8}6h[8:1],{16}5,7,
{8}1>4[8:1],5,{4}1b/6-2[8:1],{8}6,{16}4,4,{8}1,{16}3,3,
{8}8,1/7,2/6,{16}3,4,{8}2h[8:1],{16}1,3,{8}7h[8:1],{16}8,6,
{8}1-3[8:1],{16}5,5,{8}1b-7[8:1],{16}4,4,{8}1>3[8:1],{16}6,6,{8}1<7[8:1],{16}5,5,
{8}1-4[8:1],{16}6,6,{8}1-5[8:1],{16}5,5,{8}1,{16}6,6,{8}5x,{16}4,6,
3,7,2,8,{4}Cf,{16}1,2,3,4,8/5h[16:3],{8},{16}6,
{8},3/4,2/5,{16}7,8,,6,{8}5,4/5,{16}2,4,
{8}2>5[8:1],1/6,{4}2b/8-4[8:1],{8}1/8,{16}2,2,{8}5x,{16}4,4,
{8}8,1/7,2/6,{16}3,4,{8}2h[8:1],{16}1,3,{8}7h[8:1],{16}8,6,
{8}1-5[8:1],2/8,{4}1b/7-3[8:1],{8}7/8,{16}1,1,{8}4,{16}2,2,
{8}5,4/6,3/7,{16}2,1,{8}3h[8:1],{16}4,2,{8}6h[8:1],{16}5,7,
{8}4>2[8:1],{16}8,8,{8}4b,{16}6,6,{8}1-5[8:1],{16}7,7,{8}1b,{16}8,8,
{8}4-8[8:1],{16}7,7,{8}4b,{16}5,5,{8}2b-6[8:1],7,{4}2b-4[8:1]/8b-4[8:1],
2b/8b,{8}3x/4x,{16}3,4,2,5,{8}1,3x/7x,{16}6,5,
7,4,{8}8h[8:1],{32}1,2,3,4,5,6,7,8,1w5[8:1],2,3,4,5,6,7,8,{4}1,
3b/7b,{8}2-5[8:1],8-4[8:1],2,8,{16}1h[8:1],{8},{16}2h[8:1]/4h[8:1],
{8},3/5,6-4[8:1],2-6[8:1],6,2,{16}8h[8:1],{8},{16}5h[8:1]/7h[8:1],
{8},4/6,3-8[8:1],4-7[8:1],3,4,{16}1h[8:1],{8},{16}2h[8:1]/8h[8:1],
{8},3/7,3/7,{16}6,5,{8}6-2>5-8[8:3],7,{4}2x/6x,
,1b/7bh[4:1],{32}1,2,3,4,5,6,7,8,1,2,3,4,5,6,7,8,
{4}1b/Cf,{12}8,8,8,1,1,1,{48}7,{24},{48}6,{24},{16}5,4,
1,2,3,4,{8}5x/7x,8x,1x/7x,6/2-6-2[4:1],,8,
{4}8,{16}7,1,7,1,{8}7,2/6,{24}E6,B5,B4,Cf/E4,{3},{8}1/2,
3/8,4/7,{24}5,6,5,{16}6h[16:3],{8},{16}7h[16:3],
{8},8,7/8,1/6,2/5,{24}4,3,4,{16}3h[16:3],{8},{16}2h[16:3],
{8},1,3/8,4/7,5/6,{24}4,5,3,{16}4h[16:3],{8},{16}1x,
{8},7x/8x,1/6,2/5,3/4,{24}5,4,6,{16}5h[16:3],{8},{16}7x,
{8},2x/6x,{16}1,8,1,8,{32}1,2,{16}3h[8:1],,{32}7,6,{8}5h[8:1],{32}2,3,{16}4h[8:1],
,{32}8,7,{8}6h[8:1],{32}2,E3,B3,B4,{16},{32}7,E7,B6,B5,{16},{32}1,E2,B2,B3,{16},{32}8,E8,B7,B6,{16},{8}4,
4,4b/5b,{16}3,4,{8}2,1/5,{16}7,8,{8}6,
1/5,{16}2,4,{8}3,4/8,{16}7,5,{8}6,{24}3,4,3,4,{12},{4}1b/7b,
{16}2,3,4,1,2-6[8:1],3,{8}4,{4}2/6x,
{16}7,6,5,8,7-3[8:1],6,{8}5,{4}3x/7,{16}1,2,3,8,
1-5[8:1],2,{8}3,{4}1/5x,{16}7,5,7,5,8-4b[8:1],5,8,5,
{4}8>7[4:1],{32}E8,E1,E2,E3,E4,E5,E6,E7,D8,D1,D2,D3,D4,D5,D6,D7,{4}E1/D1/B8/E8/A8f/D8,
{16}3,4,3,4,2-5[8:1],5,2,5,{4}2,{16}7,5,7,5,
8-4[8:1],4,8,4,{4}8,{16}5,3,6,2,{8}8-3[8:1]*-5[8:1],1/7,
{4}8b,{16}2b,4,3,5,4,5,3,4,{8}2h[8:1],{24}1,8,7,
{8}4/6b,{16}6,4,5,4,6,5,{8}7h[8:1],{24}8,1,2,{8}3b/5,{16}3,5,
4,5,3,4,{8}2h[8:1],{24}1,8,7,{8}4/6b,{16}3,4,{8}1w5[8:1],2/8,
{4}1,{16}6bx,5x,7x,3b,4,2,6b,5,{8}7bh[8:1],{24}1,2,3,
{16}6b,5,7,3b,4,2,7b,8,{8}6bh[8:1],{24}2,3,4,{16}7b,8,6,3b,
4,2,7b,1,{4}2bx/6b,{24}1,8,1,8,1,8,1,8,1,8,1,8,
2-6[8:1],7,2,7,2,7,{384}2b<5>1[1:2],Cf,{1},{4},,,{16},,,{64},,,{192},,{4}1bx<1b[4:7],
{1},,{4}1x,
{16}2/4,{8},{16}3/5,
{8},4/6,{4}4/6h[4:1],{8}5,5h[4:1],,7,
,{24}E6,B5,B4,{4}E4,,{8}3h[8:3],6,
5,4,6h[8:3],3,4,5,4/7-4-2[4:1],7/4-1[8:1],
{2},{8}4b/5b,{16}4,5,3,6,3,6,
2,7,2,7,{24}1x,8x,1x,8x,1x,8x,1x,8x,1x,8x,1x,8x,1x-5[8:1],8x,1x,8x,1x,8x,
{4}1bx,4b/6b,{16}5,4,{8}5,{16}4/7h[16:3],{8},{16}6h[16:3],
{8},5,4/5,{16}3,4,{8}3,2/5,{24}E3,B3,B4,E5,{12},{8}8,
8,{4}1b/7b,{16}3,4,{8}3,{16}5/2h[16:3],{8},{16}3h[16:3],
{8},4,4/5,{16}6,5,{8}6,4/7,{24}E7,B6,B5,E5,{12},{4}2b/8b,
1bxh[8:1]/7bxh[8:1],{16}3,4,{8}2,{16}5/1h[16:3],{8},{16}7h[16:3],
{8},5,4/6,{16}7,5,{8}7,4/8,{24}E7,B6,B5,E5,{12},{8}1,
1,{4}2b/8b,{16}7,5,{8}6,{16}3h[8:1]/5h[8:1],{8},{16}2h[8:1]/4h[8:1],
{8},1/5,{4}1/5,{8}2/8,3/7,{24}6,4,6,4,{12},{4}3-8[8:1]/7-4[8:1],
3b/7b,{8}1/5,2/6,{16}3/7h[16:3],{8},{16}5h[16:3],
{8},6,{4}4x/7x,{8}2/5,2/5,{24}3,4,3,4,{12},{8}3x/4x,
4/5,{4}5/6b-1[8:1],{8}4/6,3,{16}2h[16:3],{8},{16}4h[16:3],
{8},3,{4}2/5,{8}4/7,4/7,{24}6,5,6,5,{12},{8}4/8,
6,3h[4:1],4,5,3h[4:1],5,6,
4h[4:1],6,7h[4:1],5,3,6h[4:1],4,2,
1/5,1/5,2/4,{16}3,5,3,5,{8}3h[8:1],{16}6,5,{8}6,
{16}3,4,{8}3h[8:1],{12}A7,A6,A5,A2,A3,A4,5,5,5,
{4}4b/6b,2h[4:1]/4h[4:1],{8},1/5,{12}2h[6:1],,4h[6:1],
,3-7-1-5[3:2],{16},,,{48},{8}7x,,5x,,6x,
,7,{4}5h[4:1]/7bh[4:1],{8},5/6,{12}4x,4x,4x,
{4}3x/5x,{24}2-4[8:1],6,2,6,2,6,{2}2-8v6[8:3],
{4},5h[4:1]/7h[4:1],{8},4/8,{12}7h[6:1],,5h[6:1],
,6-2-8-4[3:2],{16},,,{48},{8}2x,,4x,,3x,
,2,{4}2bh[4:1]/4h[4:1],{8},2/4,{12}5x,5x,5x,
{4}4x/6x,{24}7-5[8:1],3,7,3,7,3,{2}7-1v3[8:3],
{4},2b/5bh[1:2],,,,4,
4,3,
3,{32}3,4h[32:23],{4},{16},,,{32}6,5h[32:7],{4},{16},,,3,
5,3,5,4,6,4,6,5-8[8:1],6,5,6,
{4}5b,{16}1/7,2,3,5,6,7,1,2,3,5,6,7,
2,3,4,6,7,8,2,3,4,6,7,8,2,1,2,1,
3,4,3,4,{4}2bh[4:3],{32}E6,E5,E4,E3,E2,E1,E8,E7,E6,E5,E4,E3,E2,E1,E8,E7,
{4}B5/A5/E6/D6,{16}3h[8:1]/4h[8:1],{8},{16}2h[8:1]/5h[8:1],{8},1/6,1/6,2/7,
3/8,3/8,{12}4,4,6,5,5,7,6,6,8,
5,5,1,3,3,4,2,2,1,4,4,8,
{4}5/7,{16}3,4,,6,{8}5,{16}2,4,,7,{8}5,
4/6,4/6,{24}3,2,1,8,7,6,{8}5x,4x/6x,{16}2,1,{8}2,
{4}3b/8b,{16}2-4[8:1],{8},{16}4,{8},5-1[8:1],{16},3,{8},3,
2,{16}8/1-5[8:1],{8},{16}7,{8},6-8[8:1],{16},2,{8},{4}4,
{16}3,8,3,7,3,6,3,5,2,4,2,3,
2,1,2,1,3h[8:1],{8},{16}3h[8:1],{8},2/4,{16}5h[8:1],{8},{16}5h[8:1],
{8},4/6,{16}7-5[8:1],{8},{16}5,{8},4-8[8:1],{16},6,{8},6,
7,{16}1/8-4[8:1],{8},{16}2,{8},3-1[8:1],{16},7,{8},{4}5x,
{16}6,1,6,2,6,3,6,4,7,5,7,6,
7,8,7,8,{8}6b,{16}1,5,2,4,2,4,3,3,5,5,
4,4,6,6,{8}3-6[8:1],3,7-2[8:1],7,4-1[8:1],4,
8,8,2/8,3/7,4/6,3/5,2/6,1/7,
{16}8x-4[8:1],8x,8x,8x,{384}8bx,Cf,{1},{4},,,{16},,,{64},,,{192},,{12}A7,
E7,E6,A8,B8,C,A1,E2,E3,
{4}B4/E4/E5,{12}A2,E3,E4,A1,B1,C,A8,E8,E7,
{4}B5/E5/E6,3q1[4:3]/7p1[4:3],{1},{4}2/8,
{8}2/5,{16}3,5,
{8}4>1[8:1],5/6,{4}4b/7-3[8:1],{8}7,{16}1,1,{8}4,{16}2,2,
{8}5,4/6,3/7,{16}2,1,{8}3h[8:1],{16}4,2,{8}6h[8:1],{16}5,7,
{8}1>4[8:1],5,{4}1b/6-2[8:1],{8}6,{16}4,4,{8}1,{16}3,3,
{8}8,1/7,2/6,{16}3,4,{8}2h[8:1],{16}1,3,{8}7h[8:1],{16}8,6,
{8}1-3[8:1],{16}5,5,{8}1b-7[8:1],{16}4,4,{8}1>3[8:1],{16}6,6,{8}1<7[8:1],{16}5,5,
{8}1-4[8:1],{16}6,6,{8}1-5[8:1],{16}5,5,{8}1,{16}6,6,{8}5x,{16}4,6,
3,7,2,8,{4}Cf,{16}1,2,3,4,8/5h[16:3],{8},{16}6,
{8},3/4,2/5,{16}7,8,,6,{8}5,4/5,{16}2,4,
{8}2>5[8:1],1/6,{4}2b/8-4[8:1],{8}1/8,{16}2,2,{8}5x,{16}4,4,
{8}8,1/7,2/6,{16}3,4,{8}2h[8:1],{16}1,3,{8}7h[8:1],{16}8,6,
{8}1-5[8:1],2/8,{4}1b/7-3[8:1],{8}7/8,{16}1,1,{8}4,{16}2,2,
{8}5,4/6,3/7,{16}2,1,{8}3h[8:1],{16}4,2,{8}6h[8:1],{16}5,7,
{8}4>2[8:1],{16}8,8,{8}4b,{16}6,6,{8}1-5[8:1],{16}7,7,{8}1b,{16}8,8,
{8}4-8[8:1],{16}7,7,{8}4b,{16}5,5,{8}2b-6[8:1],7,{4}2b-4[8:1]/8b-4[8:1],
2b/8b,{8}3x/4x,{16}3,4,2,5,{8}1,3x/7x,{16}6,5,
7,4,{8}8h[8:1],{32}1,2,3,4,5,6,7,8,1w5[8:1],2,3,4,5,6,7,8,{4}1,
3b/7b,{8}2-5[8:1],8-4[8:1],2,8,{16}1h[8:1],{8},{16}2h[8:1]/4h[8:1],
{8},3/5,6-4[8:1],2-6[8:1],6,2,{16}8h[8:1],{8},{16}5h[8:1]/7h[8:1],
{8},4/6,3-8[8:1],4-7[8:1],3,4,{16}1h[8:1],{8},{16}2h[8:1]/8h[8:1],
{8},3/7,3/7,{16}6,5,{8}6-2>5-8[8:3],7,{4}2x/6x,
,1b/7bh[4:1],{32}1,2,3,4,5,6,7,8,1,2,3,4,5,6,7,8,
{4}1b/Cf,{12}8,8,8,1,1,1,{48}7,{24},{48}6,{24},{16}5,4,
1,2,3,4,{8}5x/7x,8x,1x/7x,6/2-6-2[4:1],,8,
{4}8,{16}7,1,7,1,{8}7,2/6,{24}E6,B5,B4,Cf/E4,{3},{8}1/2,
3/8,4/7,{24}5,6,5,{16}6h[16:3],{8},{16}7h[16:3],
{8},8,7/8,1/6,2/5,{24}4,3,4,{16}3h[16:3],{8},{16}2h[16:3],
{8},1,3/8,4/7,5/6,{24}4,5,3,{16}4h[16:3],{8},{16}1x,
{8},7x/8x,1/6,2/5,3/4,{24}5,4,6,{16}5h[16:3],{8},{16}7x,
{8},2x/6x,{16}1,8,1,8,{32}1,2,{16}3h[8:1],,{32}7,6,{8}5h[8:1],{32}2,3,{16}4h[8:1],
,{32}8,7,{8}6h[8:1],{32}2,E3,B3,B4,{16},{32}7,E7,B6,B5,{16},{32}1,E2,B2,B3,{16},{32}8,E8,B7,B6,{16},{8}4,
4,4b/5b,{16}3,4,{8}2,1/5,{16}7,8,{8}6,
1/5,{16}2,4,{8}3,4/8,{16}7,5,{8}6,{24}3,4,3,4,{12},{4}1b/7b,
{16}2,3,4,1,2-6[8:1],3,{8}4,{4}2/6x,
{16}7,6,5,8,7-3[8:1],6,{8}5,{4}3x/7,{16}1,2,3,8,
1-5[8:1],2,{8}3,{4}1/5x,{16}7,5,7,5,8-4b[8:1],5,8,5,
{4}8>7[4:1],{32}E8,E1,E2,E3,E4,E5,E6,E7,D8,D1,D2,D3,D4,D5,D6,D7,{4}E1/D1/B8/E8/A8f/D8,
{16}3,4,3,4,2-5[8:1],5,2,5,{4}2,{16}7,5,7,5,
8-4[8:1],4,8,4,{4}8,{16}5,3,6,2,{8}8-3[8:1]*-5[8:1],1/7,
{4}8b,{16}2b,4,3,5,4,5,3,4,{8}2h[8:1],{24}1,8,7,
{8}4/6b,{16}6,4,5,4,6,5,{8}7h[8:1],{24}8,1,2,{8}3b/5,{16}3,5,
4,5,3,4,{8}2h[8:1],{24}1,8,7,{8}4/6b,{16}3,4,{8}1w5[8:1],2/8,
{4}1,{16}6bx,5x,7x,3b,4,2,6b,5,{8}7bh[8:1],{24}1,2,3,
{16}6b,5,7,3b,4,2,7b,8,{8}6bh[8:1],{24}2,3,4,{16}7b,8,6,3b,
4,2,7b,1,{4}2bx/6b,{24}1,8,1,8,1,8,1,8,1,8,1,8,
2-6[8:1],7,2,7,2,7,{384}2b<5>1[1:2],Cf,{1},{4},,,{16},,,{64},,,{192},,{4}1bx<1b[4:7],
{1},,{4}1x,
{16}2/4,{8},{16}3/5,
{8},4/6,{4}4/6h[4:1],{8}5,5h[4:1],,7,
,{24}E6,B5,B4,{4}E4,,{8}3h[8:3],6,
5,4,6h[8:3],3,4,5,4/7-4-2[4:1],7/4-1[8:1],
{2},{8}4b/5b,{16}4,5,3,6,3,6,
2,7,2,7,{24}1x,8x,1x,8x,1x,8x,1x,8x,1x,8x,1x,8x,1x-5[8:1],8x,1x,8x,1x,8x,
{4}1bx,4b/6b,{16}5,4,{8}5,{16}4/7h[16:3],{8},{16}6h[16:3],
{8},5,4/5,{16}3,4,{8}3,2/5,{24}E3,B3,B4,E5,{12},{8}8,
8,{4}1b/7b,{16}3,4,{8}3,{16}5/2h[16:3],{8},{16}3h[16:3],
{8},4,4/5,{16}6,5,{8}6,4/7,{24}E7,B6,B5,E5,{12},{4}2b/8b,
1bxh[8:1]/7bxh[8:1],{16}3,4,{8}2,{16}5/1h[16:3],{8},{16}7h[16:3],
{8},5,4/6,{16}7,5,{8}7,4/8,{24}E7,B6,B5,E5,{12},{8}1,
1,{4}2b/8b,{16}7,5,{8}6,{16}3h[8:1]/5h[8:1],{8},{16}2h[8:1]/4h[8:1],
{8},1/5,{4}1/5,{8}2/8,3/7,{24}6,4,6,4,{12},{4}3-8[8:1]/7-4[8:1],
3b/7b,{8}1/5,2/6,{16}3/7h[16:3],{8},{16}5h[16:3],
{8},6,{4}4x/7x,{8}2/5,2/5,{24}3,4,3,4,{12},{8}3x/4x,
4/5,{4}5/6b-1[8:1],{8}4/6,3,{16}2h[16:3],{8},{16}4h[16:3],
{8},3,{4}2/5,{8}4/7,4/7,{24}6,5,6,5,{12},{8}4/8,
6,3h[4:1],4,5,3h[4:1],5,6,
4h[4:1],6,7h[4:1],5,3,6h[4:1],4,2,
1/5,1/5,2/4,{16}3,5,3,5,{8}3h[8:1],{16}6,5,{8}6,
{16}3,4,{8}3h[8:1],{12}A7,A6,A5,A2,A3,A4,5,5,5,
{4}4b/6b,2h[4:1]/4h[4:1],{8},1/5,{12}2h[6:1],,4h[6:1],
,3-7-1-5[3:2],{16},,,{48},{8}7x,,5x,,6x,
,7,{4}5h[4:1]/7bh[4:1],{8},5/6,{12}4x,4x,4x,
{4}3x/5x,{24}2-4[8:1],6,2,6,2,6,{2}2-8v6[8:3],
{4},5h[4:1]/7h[4:1],{8},4/8,{12}7h[6:1],,5h[6:1],
,6-2-8-4[3:2],{16},,,{48},{8}2x,,4x,,3x,
,2,{4}2bh[4:1]/4h[4:1],{8},2/4,{12}5x,5x,5x,
{4}4x/6x,{24}7-5[8:1],3,7,3,7,3,{2}7-1v3[8:3],
{4},2b/5bh[1:2],,,,4,
4,3,
3,{32}3,4h[32:23],{4},{16},,,{32}6,5h[32:7],{4},{16},,,3,
5,3,5,4,6,4,6,5-8[8:1],6,5,6,
{4}5b,{16}1/7,2,3,5,6,7,1,2,3,5,6,7,
2,3,4,6,7,8,2,3,4,6,7,8,2,1,2,1,
3,4,3,4,{4}2bh[4:3],{32}E6,E5,E4,E3,E2,E1,E8,E7,E6,E5,E4,E3,E2,E1,E8,E7,
{4}B5/A5/E6/D6,{16}3h[8:1]/4h[8:1],{8},{16}2h[8:1]/5h[8:1],{8},1/6,1/6,2/7,
3/8,3/8,{12}4,4,6,5,5,7,6,6,8,
5,5,1,3,3,4,2,2,1,4,4,8,
{4}5/7,{16}3,4,,6,{8}5,{16}2,4,,7,{8}5,
4/6,4/6,{24}3,2,1,8,7,6,{8}5x,4x/6x,{16}2,1,{8}2,
{4}3b/8b,{16}2-4[8:1],{8},{16}4,{8},5-1[8:1],{16},3,{8},3,
2,{16}8/1-5[8:1],{8},{16}7,{8},6-8[8:1],{16},2,{8},{4}4,
{16}3,8,3,7,3,6,3,5,2,4,2,3,
2,1,2,1,3h[8:1],{8},{16}3h[8:1],{8},2/4,{16}5h[8:1],{8},{16}5h[8:1],
{8},4/6,{16}7-5[8:1],{8},{16}5,{8},4-8[8:1],{16},6,{8},6,
7,{16}1/8-4[8:1],{8},{16}2,{8},3-1[8:1],{16},7,{8},{4}5x,
{16}6,1,6,2,6,3,6,4,7,5,7,6,
7,8,7,8,{8}6b,{16}1,5,2,4,2,4,3,3,5,5,
4,4,6,6,{8}3-6[8:1],3,7-2[8:1],7,4-1[8:1],4,
8,8,2/8,3/7,4/6,3/5,2/6,1/7,
{16}8x-4[8:1],8x,8x,8x,{384}8bx,Cf,{1},{4},,,{16},,,{64},,,{192},,{12}A7,
E7,E6,A8,B8,C,A1,E2,E3,
{4}B4/E4/E5,{12}A2,E3,E4,A1,B1,C,A8,E8,E7,
{4}B5/E5/E6,3q1[4:3]/7p1[4:3],{1},{4}2/8,
{8}2/5,{16}3,5,
{8}4>1[8:1],5/6,{4}4b/7-3[8:1],{8}7,{16}1,1,{8}4,{16}2,2,
{8}5,4/6,3/7,{16}2,1,{8}3h[8:1],{16}4,2,{8}6h[8:1],{16}5,7,
{8}1>4[8:1],5,{4}1b/6-2[8:1],{8}6,{16}4,4,{8}1,{16}3,3,
{8}8,1/7,2/6,{16}3,4,{8}2h[8:1],{16}1,3,{8}7h[8:1],{16}8,6,
{8}1-3[8:1],{16}5,5,{8}1b-7[8:1],{16}4,4,{8}1>3[8:1],{16}6,6,{8}1<7[8:1],{16}5,5,
{8}1-4[8:1],{16}6,6,{8}1-5[8:1],{16}5,5,{8}1,{16}6,6,{8}5x,{16}4,6,
3,7,2,8,{4}Cf,{16}1,2,3,4,8/5h[16:3],{8},{16}6,
{8},3/4,2/5,{16}7,8,,6,{8}5,4/5,{16}2,4,
{8}2>5[8:1],1/6,{4}2b/8-4[8:1],{8}1/8,{16}2,2,{8}5x,{16}4,4,
{8}8,1/7,2/6,{16}3,4,{8}2h[8:1],{16}1,3,{8}7h[8:1],{16}8,6,
{8}1-5[8:1],2/8,{4}1b/7-3[8:1],{8}7/8,{16}1,1,{8}4,{16}2,2,
{8}5,4/6,3/7,{16}2,1,{8}3h[8:1],{16}4,2,{8}6h[8:1],{16}5,7,
{8}4>2[8:1],{16}8,8,{8}4b,{16}6,6,{8}1-5[8:1],{16}7,7,{8}1b,{16}8,8,
{8}4-8[8:1],{16}7,7,{8}4b,{16}5,5,{8}2b-6[8:1],7,{4}2b-4[8:1]/8b-4[8:1],
2b/8b,{8}3x/4x,{16}3,4,2,5,{8}1,3x/7x,{16}6,5,
7,4,{8}8h[8:1],{32}1,2,3,4,5,6,7,8,1w5[8:1],2,3,4,5,6,7,8,{4}1,
3b/7b,{8}2-5[8:1],8-4[8:1],2,8,{16}1h[8:1],{8},{16}2h[8:1]/4h[8:1],
{8},3/5,6-4[8:1],2-6[8:1],6,2,{16}8h[8:1],{8},{16}5h[8:1]/7h[8:1],
{8},4/6,3-8[8:1],4-7[8:1],3,4,{16}1h[8:1],{8},{16}2h[8:1]/8h[8:1],
{8},3/7,3/7,{16}6,5,{8}6-2>5-8[8:3],7,{4}2x/6x,
,1b/7bh[4:1],{32}1,2,3,4,5,6,7,8,1,2,3,4,5,6,7,8,
{4}1b/Cf,{12}8,8,8,1,1,1,{48}7,{24},{48}6,{24},{16}5,4,
1,2,3,4,{8}5x/7x,8x,1x/7x,6/2-6-2[4:1],,8,
{4}8,{16}7,1,7,1,{8}7,2/6,{24}E6,B5,B4,Cf/E4,{3},{8}1/2,
3/8,4/7,{24}5,6,5,{16}6h[16:3],{8},{16}7h[16:3],
{8},8,7/8,1/6,2/5,{24}4,3,4,{16}3h[16:3],{8},{16}2h[16:3],
{8},1,3/8,4/7,5/6,{24}4,5,3,{16}4h[16:3],{8},{16}1x,
{8},7x/8x,1/6,2/5,3/4,{24}5,4,6,{16}5h[16:3],{8},{16}7x,
{8},2x/6x,{16}1,8,1,8,{32}1,2,{16}3h[8:1],,{32}7,6,{8}5h[8:1],{32}2,3,{16}4h[8:1],
,{32}8,7,{8}6h[8:1],{32}2,E3,B3,B4,{16},{32}7,E7,B6,B5,{16},{32}1,E2,B2,B3,{16},{32}8,E8,B7,B6,{16},{8}4,
4,4b/5b,{16}3,4,{8}2,1/5,{16}7,8,{8}6,
1/5,{16}2,4,{8}3,4/8,{16}7,5,{8}6,{24}3,4,3,4,{12},{4}1b/7b,
{16}2,3,4,1,2-6[8:1],3,{8}4,{4}2/6x,
{16}7,6,5,8,7-3[8:1],6,{8}5,{4}3x/7,{16}1,2,3,8,
1-5[8:1],2,{8}3,{4}1/5x,{16}7,5,7,5,8-4b[8:1],5,8,5,
{4}8>7[4:1],{32}E8,E1,E2,E3,E4,E5,E6,E7,D8,D1,D2,D3,D4,D5,D6,D7,{4}E1/D1/B8/E8/A8f/D8,
{16}3,4,3,4,2-5[8:1],5,2,5,{4}2,{16}7,5,7,5,
8-4[8:1],4,8,4,{4}8,{16}5,3,6,2,{8}8-3[8:1]*-5[8:1],1/7,
{4}8b,{16}2b,4,3,5,4,5,3,4,{8}2h[8:1],{24}1,8,7,
{8}4/6b,{16}6,4,5,4,6,5,{8}7h[8:1],{24}8,1,2,{8}3b/5,{16}3,5,
4,5,3,4,{8}2h[8:1],{24}1,8,7,{8}4/6b,{16}3,4,{8}1w5[8:1],2/8,
{4}1,{16}6bx,5x,7x,3b,4,2,6b,5,{8}7bh[8:1],{24}1,2,3,
{16}6b,5,7,3b,4,2,7b,8,{8}6bh[8:1],{24}2,3,4,{16}7b,8,6,3b,
4,2,7b,1,{4}2bx/6b,{24}1,8,1,8,1,8,1,8,1,8,1,8,
2-6[8:1],7,2,7,2,7,{384}2b<5>1[1:2],Cf,{1},{4},,,{16},,,{64},,,{192},,{4}1bx<1b[4:7],
{1},,{4}1x,
{16}2/4,{8},{16}3/5,
{8},4/6,{4}4/6h[4:1],{8}5,5h[4:1],,7,
,{24}E6,B5,B4,{4}E4,,{8}3h[8:3],6,
5,4,6h[8:3],3,4,5,4/7-4-2[4:1],7/4-1[8:1],
{2},{8}4b/5b,{16}4,5,3,6,3,6,
2,7,2,7,{24}1x,8x,1x,8x,1x,8x,1x,8x,1x,8x,1x,8x,1x-5[8:1],8x,1x,8x,1x,8x,
{4}1bx,4b/6b,{16}5,4,{8}5,{16}4/7h[16:3],{8},{16}6h[16:3],
{8},5,4/5,{16}3,4,{8}3,2/5,{24}E3,B3,B4,E5,{12},{8}8,
8,{4}1b/7b,{16}3,4,{8}3,{16}5/2h[16:3],{8},{16}3h[16:3],
{8},4,4/5,{16}6,5,{8}6,4/7,{24}E7,B6,B5,E5,{12},{4}2b/8b,
1bxh[8:1]/7bxh[8:1],{16}3,4,{8}2,{16}5/1h[16:3],{8},{16}7h[16:3],
{8},5,4/6,{16}7,5,{8}7,4/8,{24}E7,B6,B5,E5,{12},{8}1,
1,{4}2b/8b,{16}7,5,{8}6,{16}3h[8:1]/5h[8:1],{8},{16}2h[8:1]/4h[8:1],
{8},1/5,{4}1/5,{8}2/8,3/7,{24}6,4,6,4,{12},{4}3-8[8:1]/7-4[8:1],
3b/7b,{8}1/5,2/6,{16}3/7h[16:3],{8},{16}5h[16:3],
{8},6,{4}4x/7x,{8}2/5,2/5,{24}3,4,3,4,{12},{8}3x/4x,
4/5,{4}5/6b-1[8:1],{8}4/6,3,{16}2h[16:3],{8},{16}4h[16:3],
{8},3,{4}2/5,{8}4/7,4/7,{24}6,5,6,5,{12},{8}4/8,
6,3h[4:1],4,5,3h[4:1],5,6,
4h[4:1],6,7h[4:1],5,3,6h[4:1],4,2,
1/5,1/5,2/4,{16}3,5,3,5,{8}3h[8:1],{16}6,5,{8}6,
{16}3,4,{8}3h[8:1],{12}A7,A6,A5,A2,A3,A4,5,5,5,
{4}4b/6b,2h[4:1]/4h[4:1],{8},1/5,{12}2h[6:1],,4h[6:1],
,3-7-1-5[3:2],{16},,,{48},{8}7x,,5x,,6x,
,7,{4}5h[4:1]/7bh[4:1],{8},5/6,{12}4x,4x,4x,
{4}3x/5x,{24}2-4[8:1],6,2,6,2,6,{2}2-8v6[8:3],
{4},5h[4:1]/7h[4:1],{8},4/8,{12}7h[6:1],,5h[6:1],
,6-2-8-4[3:2],{16},,,{48},{8}2x,,4x,,3x,
,2,{4}2bh[4:1]/4h[4:1],{8},2/4,{12}5x,5x,5x,
{4}4x/6x,{24}7-5[8:1],3,7,3,7,3,{2}7-1v3[8:3],
{4},2b/5bh[1:2],,,,4,
4,3,
3,{32}3,4h[32:23],{4},{16},,,{32}6,5h[32:7],{4},{16},,,3,
5,3,5,4,6,4,6,5-8[8:1],6,5,6,
{4}5b,{16}1/7,2,3,5,6,7,1,2,3,5,6,7,
2,3,4,6,7,8,2,3,4,6,7,8,2,1,2,1,
3,4,3,4,{4}2bh[4:3],{32}E6,E5,E4,E3,E2,E1,E8,E7,E6,E5,E4,E3,E2,E1,E8,E7,
{4}B5/A5/E6/D6,{16}3h[8:1]/4h[8:1],{8},{16}2h[8:1]/5h[8:1],{8},1/6,1/6,2/7,
3/8,3/8,{12}4,4,6,5,5,7,6,6,8,
5,5,1,3,3,4,2,2,1,4,4,8,
{4}5/7,{16}3,4,,6,{8}5,{16}2,4,,7,{8}5,
4/6,4/6,{24}3,2,1,8,7,6,{8}5x,4x/6x,{16}2,1,{8}2,
{4}3b/8b,{16}2-4[8:1],{8},{16}4,{8},5-1[8:1],{16},3,{8},3,
2,{16}8/1-5[8:1],{8},{16}7,{8},6-8[8:1],{16},2,{8},{4}4,
{16}3,8,3,7,3,6,3,5,2,4,2,3,
2,1,2,1,3h[8:1],{8},{16}3h[8:1],{8},2/4,{16}5h[8:1],{8},{16}5h[8:1],
{8},4/6,{16}7-5[8:1],{8},{16}5,{8},4-8[8:1],{16},6,{8},6,
7,{16}1/8-4[8:1],{8},{16}2,{8},3-1[8:1],{16},7,{8},{4}5x,
{16}6,1,6,2,6,3,6,4,7,5,7,6,
7,8,7,8,{8}6b,{16}1,5,2,4,2,4,3,3,5,5,
4,4,6,6,{8}3-6[8:1],3,7-2[8:1],7,4-1[8:1],4,
8,8,2/8,3/7,4/6,3/5,2/6,1/7,
{16}8x-4[8:1],8x,8x,8x,{384}8bx,Cf,{1},{4},,,{16},,,{64},,,{192},,{12}A7,
E7,E6,A8,B8,C,A1,E2,E3,
{4}B4/E4/E5,{12}A2,E3,E4,A1,B1,C,A8,E8,E7,
{4}B5/E5/E6,3q1[4:3]/7p1[4:3],{1},{4}2/8,
{8}2/5,{16}3,5,
{8}4>1[8:1],5/6,{4}4b/7-3[8:1],{8}7,{16}1,1,{8}4,{16}2,2,
{8}5,4/6,3/7,{16}2,1,{8}3h[8:1],{16}4,2,{8}6h[8:1],{16}5,7,
{8}1>4[8:1],5,{4}1b/6-2[8:1],{8}6,{16}4,4,{8}1,{16}3,3,
{8}8,1/7,2/6,{16}3,4,{8}2h[8:1],{16}1,3,{8}7h[8:1],{16}8,6,
{8}1-3[8:1],{16}5,5,{8}1b-7[8:1],{16}4,4,{8}1>3[8:1],{16}6,6,{8}1<7[8:1],{16}5,5,
{8}1-4[8:1],{16}6,6,{8}1-5[8:1],{16}5,5,{8}1,{16}6,6,{8}5x,{16}4,6,
3,7,2,8,{4}Cf,{16}1,2,3,4,8/5h[16:3],{8},{16}6,
{8},3/4,2/5,{16}7,8,,6,{8}5,4/5,{16}2,4,
{8}2>5[8:1],1/6,{4}2b/8-4[8:1],{8}1/8,{16}2,2,{8}5x,{16}4,4,
{8}8,1/7,2/6,{16}3,4,{8}2h[8:1],{16}1,3,{8}7h[8:1],{16}8,6,
{8}1-5[8:1],2/8,{4}1b/7-3[8:1],{8}7/8,{16}1,1,{8}4,{16}2,2,
{8}5,4/6,3/7,{16}2,1,{8}3h[8:1],{16}4,2,{8}6h[8:1],{16}5,7,
{8}4>2[8:1],{16}8,8,{8}4b,{16}6,6,{8}1-5[8:1],{16}7,7,{8}1b,{16}8,8,
{8}4-8[8:1],{16}7,7,{8}4b,{16}5,5,{8}2b-6[8:1],7,{4}2b-4[8:1]/8b-4[8:1],
2b/8b,{8}3x/4x,{16}3,4,2,5,{8}1,3x/7x,{16}6,5,
7,4,{8}8h[8:1],{32}1,2,3,4,5,6,7,8,1w5[8:1],2,3,4,5,6,7,8,{4}1,
3b/7b,{8}2-5[8:1],8-4[8:1],2,8,{16}1h[8:1],{8},{16}2h[8:1]/4h[8:1],
{8},3/5,6-4[8:1],2-6[8:1],6,2,{16}8h[8:1],{8},{16}5h[8:1]/7h[8:1],
{8},4/6,3-8[8:1],4-7[8:1],3,4,{16}1h[8:1],{8},{16}2h[8:1]/8h[8:1],
{8},3/7,3/7,{16}6,5,{8}6-2>5-8[8:3],7,{4}2x/6x,
,1b/7bh[4:1],{32}1,2,3,4,5,6,7,8,1,2,3,4,5,6,7,8,
{4}1b/Cf,{12}8,8,8,1,1,1,{48}7,{24},{48}6,{24},{16}5,4,
1,2,3,4,{8}5x/7x,8x,1x/7x,6/2-6-2[4:1],,8,
{4}8,{16}7,1,7,1,{8}7,2/6,{24}E6,B5,B4,Cf/E4,{3},{8}1/2,
3/8,4/7,{24}5,6,5,{16}6h[16:3],{8},{16}7h[16:3],
{8},8,7/8,1/6,2/5,{24}4,3,4,{16}3h[16:3],{8},{16}2h[16:3],
{8},1,3/8,4/7,5/6,{24}4,5,3,{16}4h[16:3],{8},{16}1x,
{8},7x/8x,1/6,2/5,3/4,{24}5,4,6,{16}5h[16:3],{8},{16}7x,
{8},2x/6x,{16}1,8,1,8,{32}1,2,{16}3h[8:1],,{32}7,6,{8}5h[8:1],{32}2,3,{16}4h[8:1],
,{32}8,7,{8}6h[8:1],{32}2,E3,B3,B4,{16},{32}7,E7,B6,B5,{16},{32}1,E2,B2,B3,{16},{32}8,E8,B7,B6,{16},{8}4,
4,4b/5b,{16}3,4,{8}2,1/5,{16}7,8,{8}6,
1/5,{16}2,4,{8}3,4/8,{16}7,5,{8}6,{24}3,4,3,4,{12},{4}1b/7b,
{16}2,3,4,1,2-6[8:1],3,{8}4,{4}2/6x,
{16}7,6,5,8,7-3[8:1],6,{8}5,{4}3x/7,{16}1,2,3,8,
1-5[8:1],2,{8}3,{4}1/5x,{16}7,5,7,5,8-4b[8:1],5,8,5,
{4}8>7[4:1],{32}E8,E1,E2,E3,E4,E5,E6,E7,D8,D1,D2,D3,D4,D5,D6,D7,{4}E1/D1/B8/E8/A8f/D8,
{16}3,4,3,4,2-5[8:1],5,2,5,{4}2,{16}7,5,7,5,
8-4[8:1],4,8,4,{4}8,{16}5,3,6,2,{8}8-3[8:1]*-5[8:1],1/7,
{4}8b,{16}2b,4,3,5,4,5,3,4,{8}2h[8:1],{24}1,8,7,
{8}4/6b,{16}6,4,5,4,6,5,{8}7h[8:1],{24}8,1,2,{8}3b/5,{16}3,5,
4,5,3,4,{8}2h[8:1],{24}1,8,7,{8}4/6b,{16}3,4,{8}1w5[8:1],2/8,
{4}1,{16}6bx,5x,7x,3b,4,2,6b,5,{8}7bh[8:1],{24}1,2,3,
{16}6b,5,7,3b,4,2,7b,8,{8}6bh[8:1],{24}2,3,4,{16}7b,8,6,3b,
4,2,7b,1,{4}2bx/6b,{24}1,8,1,8,1,8,1,8,1,8,1,8,
2-6[8:1],7,2,7,2,7,{384}2b<5>1[1:2],Cf,{1},{4},,,{16},,,{64},,,{192},,{4}1bx<1b[4:7],
{1},,{4}1x,
{16}2/4,{8},{16}3/5,
{8},4/6,{4}4/6h[4:1],{8}5,5h[4:1],,7,
,{24}E6,B5,B4,{4}E4,,{8}3h[8:3],6,
5,4,6h[8:3],3,4,5,4/7-4-2[4:1],7/4-1[8:1],
{2},{8}4b/5b,{16}4,5,3,6,3,6,
2,7,2,7,{24}1x,8x,1x,8x,1x,8x,1x,8x,1x,8x,1x,8x,1x-5[8:1],8x,1x,8x,1x,8x,
{4}1bx,4b/6b,{16}5,4,{8}5,{16}4/7h[16:3],{8},{16}6h[16:3],
{8},5,4/5,{16}3,4,{8}3,2/5,{24}E3,B3,B4,E5,{12},{8}8,
8,{4}1b/7b,{16}3,4,{8}3,{16}5/2h[16:3],{8},{16}3h[16:3],
{8},4,4/5,{16}6,5,{8}6,4/7,{24}E7,B6,B5,E5,{12},{4}2b/8b,
1bxh[8:1]/7bxh[8:1],{16}3,4,{8}2,{16}5/1h[16:3],{8},{16}7h[16:3],
{8},5,4/6,{16}7,5,{8}7,4/8,{24}E7,B6,B5,E5,{12},{8}1,
1,{4}2b/8b,{16}7,5,{8}6,{16}3h[8:1]/5h[8:1],{8},{16}2h[8:1]/4h[8:1],
{8},1/5,{4}1/5,{8}2/8,3/7,{24}6,4,6,4,{12},{4}3-8[8:1]/7-4[8:1],
3b/7b,{8}1/5,2/6,{16}3/7h[16:3],{8},{16}5h[16:3],
{8},6,{4}4x/7x,{8}2/5,2/5,{24}3,4,3,4,{12},{8}3x/4x,
4/5,{4}5/6b-1[8:1],{8}4/6,3,{16}2h[16:3],{8},{16}4h[16:3],
{8},3,{4}2/5,{8}4/7,4/7,{24}6,5,6,5,{12},{8}4/8,
6,3h[4:1],4,5,3h[4:1],5,6,
4h[4:1],6,7h[4:1],5,3,6h[4:1],4,2,
1/5,1/5,2/4,{16}3,5,3,5,{8}3h[8:1],{16}6,5,{8}6,
{16}3,4,{8}3h[8:1],{12}A7,A6,A5,A2,A3,A4,5,5,5,
{4}4b/6b,2h[4:1]/4h[4:1],{8},1/5,{12}2h[6:1],,4h[6:1],
,3-7-1-5[3:2],{16},,,{48},{8}7x,,5x,,6x,
,7,{4}5h[4:1]/7bh[4:1],{8},5/6,{12}4x,4x,4x,
{4}3x/5x,{24}2-4[8:1],6,2,6,2,6,{2}2-8v6[8:3],
{4},5h[4:1]/7h[4:1],{8},4/8,{12}7h[6:1],,5h[6:1],
,6-2-8-4[3:2],{16},,,{48},{8}2x,,4x,,3x,
,2,{4}2bh[4:1]/4h[4:1],{8},2/4,{12}5x,5x,5x,
{4}4x/6x,{24}7-5[8:1],3,7,3,7,3,{2}7-1v3[8:3],
{4},2b/5bh[1:2],,,,4,
4,3,
3,{32}3,4h[32:23],{4},{16},,,{32}6,5h[32:7],{4},{16},,,3,
5,3,5,4,6,4,6,5-8[8:1],6,5,6,
{4}5b,{16}1/7,2,3,5,6,7,1,2,3,5,6,7,
2,3,4,6,7,8,2,3,4,6,7,8,2,1,2,1,
3,4,3,4,{4}2bh[4:3],{32}E6,E5,E4,E3,E2,E1,E8,E7,E6,E5,E4,E3,E2,E1,E8,E7,
{4}B5/A5/E6/D6,{16}3h[8:1]/4h[8:1],{8},{16}2h[8:1]/5h[8:1],{8},1/6,1/6,2/7,
3/8,3/8,{12}4,4,6,5,5,7,6,6,8,
5,5,1,3,3,4,2,2,1,4,4,8,
{4}5/7,{16}3,4,,6,{8}5,{16}2,4,,7,{8}5,
4/6,4/6,{24}3,2,1,8,7,6,{8}5x,4x/6x,{16}2,1,{8}2,
{4}3b/8b,{16}2-4[8:1],{8},{16}4,{8},5-1[8:1],{16},3,{8},3,
2,{16}8/1-5[8:1],{8},{16}7,{8},6-8[8:1],{16},2,{8},{4}4,
{16}3,8,3,7,3,6,3,5,2,4,2,3,
2,1,2,1,3h[8:1],{8},{16}3h[8:1],{8},2/4,{16}5h[8:1],{8},{16}5h[8:1],
{8},4/6,{16}7-5[8:1],{8},{16}5,{8},4-8[8:1],{16},6,{8},6,
7,{16}1/8-4[8:1],{8},{16}2,{8},3-1[8:1],{16},7,{8},{4}5x,
{16}6,1,6,2,6,3,6,4,7,5,7,6,
7,8,7,8,{8}6b,{16}1,5,2,4,2,4,3,3,5,5,
4,4,6,6,{8}3-6[8:1],3,7-2[8:1],7,4-1[8:1],4,
8,8,2/8,3/7,4/6,3/5,2/6,1/7,
{16}8x-4[8:1],8x,8x,8x,{384}8bx,Cf,{1},{4},,,{16},,,{64},,,{192},,{12}A7,
E7,E6,A8,B8,C,A1,E2,E3,
{4}B4/E4/E5,{12}A2,E3,E4,A1,B1,C,A8,E8,E7,
{4}B5/E5/E6,3q1[4:3]/7p1[4:3],{1},{4}2/8,
{8}2/5,{16}3,5,
{8}4>1[8:1],5/6,{4}4b/7-3[8:1],{8}7,{16}1,1,{8}4,{16}2,2,
{8}5,4/6,3/7,{16}2,1,{8}3h[8:1],{16}4,2,{8}6h[8:1],{16}5,7,
{8}1>4[8:1],5,{4}1b/6-2[8:1],{8}6,{16}4,4,{8}1,{16}3,3,
{8}8,1/7,2/6,{16}3,4,{8}2h[8:1],{16}1,3,{8}7h[8:1],{16}8,6,
{8}1-3[8:1],{16}5,5,{8}1b-7[8:1],{16}4,4,{8}1>3[8:1],{16}6,6,{8}1<7[8:1],{16}5,5,
{8}1-4[8:1],{16}6,6,{8}1-5[8:1],{16}5,5,{8}1,{16}6,6,{8}5x,{16}4,6,
3,7,2,8,{4}Cf,{16}1,2,3,4,8/5h[16:3],{8},{16}6,
{8},3/4,2/5,{16}7,8,,6,{8}5,4/5,{16}2,4,
{8}2>5[8:1],1/6,{4}2b/8-4[8:1],{8}1/8,{16}2,2,{8}5x,{16}4,4,
{8}8,1/7,2/6,{16}3,4,{8}2h[8:1],{16}1,3,{8}7h[8:1],{16}8,6,
{8}1-5[8:1],2/8,{4}1b/7-3[8:1],{8}7/8,{16}1,1,{8}4,{16}2,2,
{8}5,4/6,3/7,{16}2,1,{8}3h[8:1],{16}4,2,{8}6h[8:1],{16}5,7,
{8}4>2[8:1],{16}8,8,{8}4b,{16}6,6,{8}1-5[8:1],{16}7,7,{8}1b,{16}8,8,
{8}4-8[8:1],{16}7,7,{8}4b,{16}5,5,{8}2b-6[8:1],7,{4}2b-4[8:1]/8b-4[8:1],
2b/8b,{8}3x/4x,{16}3,4,2,5,{8}1,3x/7x,{16}6,5,
7,4,{8}8h[8:1],{32}1,2,3,4,5,6,7,8,1w5[8:1],2,3,4,5,6,7,8,{4}1,
3b/7b,{8}2-5[8:1],8-4[8:1],2,8,{16}1h[8:1],{8},{16}2h[8:1]/4h[8:1],
{8},3/5,6-4[8:1],2-6[8:1],6,2,{16}8h[8:1],{8},{16}5h[8:1]/7h[8:1],
{8},4/6,3-8[8:1],4-7[8:1],3,4,{16}1h[8:1],{8},{16}2h[8:1]/8h[8:1],
{8},3/7,3/7,{16}6,5,{8}6-2>5-8[8:3],7,{4}2x/6x,
,1b/7bh[4:1],{32}1,2,3,4,5,6,7,8,1,2,3,4,5,6,7,8,
{4}1b/Cf,{12}8,8,8,1,1,1,{48}7,{24},{48}6,{24},{16}5,4,
1,2,3,4,{8}5x/7x,8x,1x/7x,6/2-6-2[4:1],,8,
{4}8,{16}7,1,7,1,{8}7,2/6,{24}E6,B5,B4,Cf/E4,{3},{8}1/2,
3/8,4/7,{24}5,6,5,{16}6h[16:3],{8},{16}7h[16:3],
{8},8,7/8,1/6,2/5,{24}4,3,4,{16}3h[16:3],{8},{16}2h[16:3],
{8},1,3/8,4/7,5/6,{24}4,5,3,{16}4h[16:3],{8},{16}1x,
{8},7x/8x,1/6,2/5,3/4,{24}5,4,6,{16}5h[16:3],{8},{16}7x,
{8},2x/6x,{16}1,8,1,8,{32}1,2,{16}3h[8:1],,{32}7,6,{8}5h[8:1],{32}2,3,{16}4h[8:1],
,{32}8,7,{8}6h[8:1],{32}2,E3,B3,B4,{16},{32}7,E7,B6,B5,{16},{32}1,E2,B2,B3,{16},{32}8,E8,B7,B6,{16},{8}4,
4,4b/5b,{16}3,4,{8}2,1/5,{16}7,8,{8}6,
1/5,{16}2,4,{8}3,4/8,{16}7,5,{8}6,{24}3,4,3,4,{12},{4}1b/7b,
{16}2,3,4,1,2-6[8:1],3,{8}4,{4}2/6x,
{16}7,6,5,8,7-3[8:1],6,{8}5,{4}3x/7,{16}1,2,3,8,
1-5[8:1],2,{8}3,{4}1/5x,{16}7,5,7,5,8-4b[8:1],5,8,5,
{4}8>7[4:1],{32}E8,E1,E2,E3,E4,E5,E6,E7,D8,D1,D2,D3,D4,D5,D6,D7,{4}E1/D1/B8/E8/A8f/D8,
{16}3,4,3,4,2-5[8:1],5,2,5,{4}2,{16}7,5,7,5,
8-4[8:1],4,8,4,{4}8,{16}5,3,6,2,{8}8-3[8:1]*-5[8:1],1/7,
{4}8b,{16}2b,4,3,5,4,5,3,4,{8}2h[8:1],{24}1,8,7,
{8}4/6b,{16}6,4,5,4,6,5,{8}7h[8:1],{24}8,1,2,{8}3b/5,{16}3,5,
4,5,3,4,{8}2h[8:1],{24}1,8,7,{8}4/6b,{16}3,4,{8}1w5[8:1],2/8,
{4}1,{16}6bx,5x,7x,3b,4,2,6b,5,{8}7bh[8:1],{24}1,2,3,
{16}6b,5,7,3b,4,2,7b,8,{8}6bh[8:1],{24}2,3,4,{16}7b,8,6,3b,
4,2,7b,1,{4}2bx/6b,{24}1,8,1,8,1,8,1,8,1,8,1,8,
2-6[8:1],7,2,7,2,7,{384}2b<5>1[1:2],Cf,{1},{4},,,{16},,,{64},,,{192},,{4}1bx<1b[4:7],
{1},,{4}1x,
{16}2/4,{8},{16}3/5,
{8},4/6,{4}4/6h[4:1],{8}5,5h[4:1],,7,
,{24}E6,B5,B4,{4}E4,,{8}3h[8:3],6,
5,4,6h[8:3],3,4,5,4/7-4-2[4:1],7/4-1[8:1],
{2},{8}4b/5b,{16}4,5,3,6,3,6,
2,7,2,7,{24}1x,8x,1x,8x,1x,8x,1x,8x,1x,8x,1x,8x,1x-5[8:1],8x,1x,8x,1x,8x,
{4}1bx,4b/6b,{16}5,4,{8}5,{16}4/7h[16:3],{8},{16}6h[16:3],
{8},5,4/5,{16}3,4,{8}3,2/5,{24}E3,B3,B4,E5,{12},{8}8,
8,{4}1b/7b,{16}3,4,{8}3,{16}5/2h[16:3],{8},{16}3h[16:3],
{8},4,4/5,{16}6,5,{8}6,4/7,{24}E7,B6,B5,E5,{12},{4}2b/8b,
1bxh[8:1]/7bxh[8:1],{16}3,4,{8}2,{16}5/1h[16:3],{8},{16}7h[16:3],
{8},5,4/6,{16}7,5,{8}7,4/8,{24}E7,B6,B5,E5,{12},{8}1,
1,{4}2b/8b,{16}7,5,{8}6,{16}3h[8:1]/5h[8:1],{8},{16}2h[8:1]/4h[8:1],
{8},1/5,{4}1/5,{8}2/8,3/7,{24}6,4,6,4,{12},{4}3-8[8:1]/7-4[8:1],
3b/7b,{8}1/5,2/6,{16}3/7h[16:3],{8},{16}5h[16:3],
{8},6,{4}4x/7x,{8}2/5,2/5,{24}3,4,3,4,{12},{8}3x/4x,
4/5,{4}5/6b-1[8:1],{8}4/6,3,{16}2h[16:3],{8},{16}4h[16:3],
{8},3,{4}2/5,{8}4/7,4/7,{24}6,5,6,5,{12},{8}4/8,
6,3h[4:1],4,5,3h[4:1],5,6,
4h[4:1],6,7h[4:1],5,3,6h[4:1],4,2,
1/5,1/5,2/4,{16}3,5,3,5,{8}3h[8:1],{16}6,5,{8}6,
{16}3,4,{8}3h[8:1],{12}A7,A6,A5,A2,A3,A4,5,5,5,
{4}4b/6b,2h[4:1]/4h[4:1],{8},1/5,{12}2h[6:1],,4h[6:1],
,3-7-1-5[3:2],{16},,,{48},{8}7x,,5x,,6x,
,7,{4}5h[4:1]/7bh[4:1],{8},5/6,{12}4x,4x,4x,
{4}3x/5x,{24}2-4[8:1],6,2,6,2,6,{2}2-8v6[8:3],
{4},5h[4:1]/7h[4:1],{8},4/8,{12}7h[6:1],,5h[6:1],
,6-2-8-4[3:2],{16},,,{48},{8}2x,,4x,,3x,
,2,{4}2bh[4:1]/4h[4:1],{8},2/4,{12}5x,5x,5x,
{4}4x/6x,{24}7-5[8:1],3,7,3,7,3,{2}7-1v3[8:3],
{4},2b/5bh[1:2],,,,4,
4,3,
3,{32}3,4h[32:23],{4},{16},,,{32}6,5h[32:7],{4},{16},,,3,
5,3,5,4,6,4,6,5-8[8:1],6,5,6,
{4}5b,{16}1/7,2,3,5,6,7,1,2,3,5,6,7,
2,3,4,6,7,8,2,3,4,6,7,8,2,1,2,1,
3,4,3,4,{4}2bh[4:3],{32}E6,E5,E4,E3,E2,E1,E8,E7,E6,E5,E4,E3,E2,E1,E8,E7,
{4}B5/A5/E6/D6,{16}3h[8:1]/4h[8:1],{8},{16}2h[8:1]/5h[8:1],{8},1/6,1/6,2/7,
3/8,3/8,{12}4,4,6,5,5,7,6,6,8,
5,5,1,3,3,4,2,2,1,4,4,8,
{4}5/7,{16}3,4,,6,{8}5,{16}2,4,,7,{8}5,
4/6,4/6,{24}3,2,1,8,7,6,{8}5x,4x/6x,{16}2,1,{8}2,
{4}3b/8b,{16}2-4[8:1],{8},{16}4,{8},5-1[8:1],{16},3,{8},3,
2,{16}8/1-5[8:1],{8},{16}7,{8},6-8[8:1],{16},2,{8},{4}4,
{16}3,8,3,7,3,6,3,5,2,4,2,3,
2,1,2,1,3h[8:1],{8},{16}3h[8:1],{8},2/4,{16}5h[8:1],{8},{16}5h[8:1],
{8},4/6,{16}7-5[8:1],{8},{16}5,{8},4-8[8:1],{16},6,{8},6,
7,{16}1/8-4[8:1],{8},{16}2,{8},3-1[8:1],{16},7,{8},{4}5x,
{16}6,1,6,2,6,3,6,4,7,5,7,6,
7,8,7,8,{8}6b,{16}1,5,2,4,2,4,3,3,5,5,
4,4,6,6,{8}3-6[8:1],3,7-2[8:1],7,4-1[8:1],4,
8,8,2/8,3/7,4/6,3/5,2/6,1/7,
{16}8x-4[8:1],8x,8x,8x,{384}8bx,Cf,{1},{4},,,{16},,,{64},,,{192},,{12}A7,
E7,E6,A8,B8,C,A1,E2,E3,
{4}B4/E4/E5,{12}A2,E3,E4,A1,B1,C,A8,E8,E7,
{4}B5/E5/E6,3q1[4:3]/7p1[4:3],{1},{4}2/8,
{8}2/5,{16}3,5,
{8}4>1[8:1],5/6,{4}4b/7-3[8:1],{8}7,{16}1,1,{8}4,{16}2,2,
{8}5,4/6,3/7,{16}2,1,{8}3h[8:1],{16}4,2,{8}6h[8:1],{16}5,7,
{8}1>4[8:1],5,{4}1b/6-2[8:1],{8}6,{16}4,4,{8}1,{16}3,3,
{8}8,1/7,2/6,{16}3,4,{8}2h[8:1],{16}1,3,{8}7h[8:1],{16}8,6,
{8}1-3[8:1],{16}5,5,{8}1b-7[8:1],{16}4,4,{8}1>3[8:1],{16}6,6,{8}1<7[8:1],{16}5,5,
{8}1-4[8:1],{16}6,6,{8}1-5[8:1],{16}5,5,{8}1,{16}6,6,{8}5x,{16}4,6,
3,7,2,8,{4}Cf,{16}1,2,3,4,8/5h[16:3],{8},{16}6,
{8},3/4,2/5,{16}7,8,,6,{8}5,4/5,{16}2,4,
{8}2>5[8:1],1/6,{4}2b/8-4[8:1],{8}1/8,{16}2,2,{8}5x,{16}4,4,
{8}8,1/7,2/6,{16}3,4,{8}2h[8:1],{16}1,3,{8}7h[8:1],{16}8,6,
{8}1-5[8:1],2/8,{4}1b/7-3[8:1],{8}7/8,{16}1,1,{8}4,{16}2,2,
{8}5,4/6,3/7,{16}2,1,{8}3h[8:1],{16}4,2,{8}6h[8:1],{16}5,7,
{8}4>2[8:1],{16}8,8,{8}4b,{16}6,6,{8}1-5[8:1],{16}7,7,{8}1b,{16}8,8,
{8}4-8[8:1],{16}7,7,{8}4b,{16}5,5,{8}2b-6[8:1],7,{4}2b-4[8:1]/8b-4[8:1],
2b/8b,{8}3x/4x,{16}3,4,2,5,{8}1,3x/7x,{16}6,5,
7,4,{8}8h[8:1],{32}1,2,3,4,5,6,7,8,1w5[8:1],2,3,4,5,6,7,8,{4}1,
3b/7b,{8}2-5[8:1],8-4[8:1],2,8,{16}1h[8:1],{8},{16}2h[8:1]/4h[8:1],
{8},3/5,6-4[8:1],2-6[8:1],6,2,{16}8h[8:1],{8},{16}5h[8:1]/7h[8:1],
{8},4/6,3-8[8:1],4-7[8:1],3,4,{16}1h[8:1],{8},{16}2h[8:1]/8h[8:1],
{8},3/7,3/7,{16}6,5,{8}6-2>5-8[8:3],7,{4}2x/6x,
,1b/7bh[4:1],{32}1,2,3,4,5,6,7,8,1,2,3,4,5,6,7,8,
{4}1b/Cf,{12}8,8,8,1,1,1,{48}7,{24},{48}6,{24},{16}5,4,
1,2,3,4,{8}5x/7x,8x,1x/7x,6/2-6-2[4:1],,8,
{4}8,{16}7,1,7,1,{8}7,2/6,{24}E6,B5,B4,Cf/E4,{3},{8}1/2,
3/8,4/7,{24}5,6,5,{16}6h[16:3],{8},{16}7h[16:3],
{8},8,7/8,1/6,2/5,{24}4,3,4,{16}3h[16:3],{8},{16}2h[16:3],
{8},1,3/8,4/7,5/6,{24}4,5,3,{16}4h[16:3],{8},{16}1x,
{8},7x/8x,1/6,2/5,3/4,{24}5,4,6,{16}5h[16:3],{8},{16}7x,
{8},2x/6x,{16}1,8,1,8,{32}1,2,{16}3h[8:1],,{32}7,6,{8}5h[8:1],{32}2,3,{16}4h[8:1],
,{32}8,7,{8}6h[8:1],{32}2,E3,B3,B4,{16},{32}7,E7,B6,B5,{16},{32}1,E2,B2,B3,{16},{32}8,E8,B7,B6,{16},{8}4,
4,4b/5b,{16}3,4,{8}2,1/5,{16}7,8,{8}6,
1/5,{16}2,4,{8}3,4/8,{16}7,5,{8}6,{24}3,4,3,4,{12},{4}1b/7b,
{16}2,3,4,1,2-6[8:1],3,{8}4,{4}2/6x,
{16}7,6,5,8,7-3[8:1],6,{8}5,{4}3x/7,{16}1,2,3,8,
1-5[8:1],2,{8}3,{4}1/5x,{16}7,5,7,5,8-4b[8:1],5,8,5,
{4}8>7[4:1],{32}E8,E1,E2,E3,E4,E5,E6,E7,D8,D1,D2,D3,D4,D5,D6,D7,{4}E1/D1/B8/E8/A8f/D8,
{16}3,4,3,4,2-5[8:1],5,2,5,{4}2,{16}7,5,7,5,
8-4[8:1],4,8,4,{4}8,{16}5,3,6,2,{8}8-3[8:1]*-5[8:1],1/7,
{4}8b,{16}2b,4,3,5,4,5,3,4,{8}2h[8:1],{24}1,8,7,
{8}4/6b,{16}6,4,5,4,6,5,{8}7h[8:1],{24}8,1,2,{8}3b/5,{16}3,5,
4,5,3,4,{8}2h[8:1],{24}1,8,7,{8}4/6b,{16}3,4,{8}1w5[8:1],2/8,
{4}1,{16}6bx,5x,7x,3b,4,2,6b,5,{8}7bh[8:1],{24}1,2,3,
{16}6b,5,7,3b,4,2,7b,8,{8}6bh[8:1],{24}2,3,4,{16}7b,8,6,3b,
4,2,7b,1,{4}2bx/6b,{24}1,8,1,8,1,8,1,8,1,8,1,8,
2-6[8:1],7,2,7,2,7,{384}2b<5>1[1:2],Cf,{1},{4},,,{16},,,{64},,,{192},,{4}1bx<1b[4:7],
{1},,{4}1x,
{16}2/4,{8},{16}3/5,
{8},4/6,{4}4/6h[4:1],{8}5,5h[4:1],,7,
,{24}E6,B5,B4,{4}E4,,{8}3h[8:3],6,
5,4,6h[8:3],3,4,5,4/7-4-2[4:1],7/4-1[8:1],
