&title=ユメヒバナ
&artist=RD-Sounds feat.中恵光城
&first=0
&des=nvmgd
&lv_5=13
&inote_5=(151)
{4},,,,,,
64,
25,
8<4[4:1],,
1>5[4:1],,
7p5[8:3],
3,
2,,
{4}
6h[4:2]
/
5p8[4:1],,,
27,
3h[4:2]
/
1p4[4:1],,,
74,
{4}
6>3[4:1],,
1p3[4:1],,
5h[4:2],
2<7[6:1],
2,
{8}
,
34,
4/5<8[4:1],,
2p4[4:1],,,,,,
7/3,
62,
62,
15,
{4}
1>4[8:1]
/
5<8[8:1],
5-1[8:1],
Cf,
{8},
{16}
3,
3,
24,,,,,,
7,
8,
6h[4:1],,,,
5h[4:1],,,,
2,
1,
2,,
38,,,,
{8}
6h[4:1]
/
5h[4:1],,,
7/8<5[8:1],
1,
8,
3x,
{16}
6,
5,
6,,
3,
4,
2,,
8,,
7/1w5[8:1],,
82,,
1,,,,
{8}
7-4[8:1],
8,
7/1-5[8:1],
2,
1<6[8:1]*>4[8:1],,
1,,
{8}
2,
34,
6,
75,
{16}
1,
8,
{8}
1,
72,,
{8}
45,
3,
87,
6,
12,
3,
64,
{16}
7,
8,
7,,
2,
1,
2,,
{8}
73,
54,
8b/2,
6/3b,,
{4}
7<4[4:1],
4q1[4:1],
2h[4:1],,
4p7[4:1],
7>2[4:1],
5h[4:1],,
{4}
6p1[8:1]
/
4-1[8:1],,
7v4[8:1]
/
8-4[8:1],,
5<4[4:2]*p4[4:2],,,,
{4}
1>4[4:1],
4q2[4:1],
6h[4:1],,
7v5[4:1],
5<8[4:1],
{8}
2,
3,
4,,
{4}
1>4[8:1],
B2/B3,
5<8[8:1],
B7/B6,
2w6[8:1],,
8b/4b,,
{8}
7/1h[8:1],,
8h[8:1]/2,
3,
4h[8:1]/5,,
7h[8:1]
/
5>2[8:1],,
6h[8:1]/5,,
8-4[8:1],
1,
82,,,
{8}
6,
6<2[8:1],,
4-1[8:1],
4,
5h[8:3],,
E8/B8/B7,
B2/B3/E3,
{8}
7-4[8:1]
/
3-6[8:1],,
7>1[8:1]
/
3>1[8:1],,
73,,
E1/B8/Cf/B4/E5,,
{8}
5,
64,
3-7[8:1],
7-5[8:1],
8h[4:1],,,
1,
1-6[8:1],
2,
3-8[8:1],
4,
5-1[8:1],
6,
75,,
{8}
2h[4:1]
/
6<1[8:1],,,,
35,
4,
6,
75,
8-4[8:1],
8,
2-6[8:1],
2,
4x<5-7[8:1]*>3-1[8:1],,
4,
,
{8}
3h[4:1]
/
5>1[6:1],,,,
7,
86,,,
{4}
1-7[8:1]
/
5-1[8:1],
5v3[8:1],
8v5[8:1],
8,
{8}
24,
3,
75,
6,
1h[8:3],,
6,
4,
8h[8:4]
/
B3/E4,
B5/E6,
B1/E2,
B7/E8,
C,
,,,
{8}
2h[4:1]
/
7q5[6:1],,,,
3,
14,,,
5-2[8:1],,
1/5-8[8:1],,
53,
4,
6,
7,
{16}
18,,
3,
4,
3,,
24,,
13,,,,
54,,
7,
8,
7,,
86,,
71,,,,
{8}
34,
56,
78,
12,
3/4h[16:5],,
{64}
6,
7,
8,
1,
{16}
2,,,
8h[16:5],,,,
{64}
2,
3,
4,
5,
{16}
6,,,
Ch[4:1],,,,
{64}
7w3[8:1],
8,
1,
2,
3,
4,
5,
6,
7,,,,,,,,
Cf,,,,,,,,,,,,,,,,,,,,,,,,,,,,,,,,
{8}
1-4-6[4:1],
4,
6-2[8:1],
8,
7h[4:1],,,,
2-5[8:1]
/
4,
1,
8-3[8:1]
/
2,
7,
8/6>3[8:1],,
6/3x,,
{8}
7xqq4[4:2],,
3,
2,
1h[4:1],,,
6,
78,
{16}
3,
4,
2,,
6,
5,
7,,
1b,,
1b,,,,
{8}
6h[4:1]
/
5h[4:1],,,
7,
82,
34,
2-4[12:1],
7-1[12:1],
2v5[8:1],
7-4[8:1],
2-8[12:1],
7,
2,,
E7/E6/E5/E4,,
{8}
7/8<5[8:1],,
8/1-5[8:1],
2,
7-4[8:1],
8,
2-6[8:1],
3,
8-5[8:1],
7,
3-7-1-4[8:3],
4,
7,
5b,
6b,,
{8}
8<3[4:1],
5,
3p6[8:1],
2,
1h[4:1],,
4<7[8:1],,
8/4>1[8:1],
2,
8/4<7[8:1],
6,
8/4-8[8:1]*-2[8:1],,
4,,
{8}
7-4-6-1[8:3]/1,,
4,
3,
2h[4:1],,,
5,
46,
{16}
7,
8,
7,,
3,
4,
3,,
6b,,
7b/5,,,,
{8}
1>4[8:1]
/
4<7[8:1],,
14,,
8-4[8:1],
8,
2-5[8:1],
2,
7<4[8:1],
6,
1-4[8:1],
2,
8-5[8:1]*-3[8:1],,
8,,
{8}
72,,
34,
2,
18,
7,
56,
4,
23,
{16}
6,
5,
7,,
1,
8,
2-6[8:1]*-4[8:1],,
3,,
2b,,,,
{8}
7h[8:1]/8,,
8/1h[8:1],
2,
1h[8:1]/3,,
8/2h[8:1],
7,
6h[8:1]/1,,
78,
12,
{16}
6,
4,
8,
2,
5,,
46,,
{8}
3h[8:1]/7,,
6h[8:1]/3,
4,
5h[8:1]/4,
3,
4h[8:1]/6,
7,
65,
{16}
1,
1,
2,
2,
3,
3,
4,,
7/8b,,
1/6b,,,,
{8}
1x-3[8:1],
{32}
7,
6,
5,,
{8}
1x-5[8:1],
{32}
6,
5,
4,,
{8}
1x-3[8:1],
{32}
8,
7,
6,,
{8}
1x-5[8:1],
{32}
6,
5,
4,,
{8}
1x-3[8:1],
{32}
8,
7,
6,,
{8}
1x,
{32}
7,
6,
5,,
{16}
2x,
1x,
4,
5,
87,,
16,,
{8}
2-6[8:1],
2,
5-8[8:1],
5,
1>5[8:1],
1,
7-3[8:1],,
7b,,,,
E7/B6/C/B2/E3,,
5-1[8:1],,
Cf/5b-1<5b[8:4]*-1>5b[8:4],,,,,,,,
{16}
18,,
2,
4,
3,,
6,
4,
5,
3,
8,,
17,,,,
{8}
5h[4:1],
6,
7h[4:1],
8,
1h[4:1],
2,
2,
{16}
3,
4,
3,,
6,
5,
6,,
7,,
8q5[8:1]
/
2p5[8:1],,
73,,
82,,,,
{16}
72,,
3,
4,
1,,
6,
5,
8-5[8:1]*-3[8:1],,
71,,,,,,
2-5[8:1]
/
6-1[8:1],,
15,,,,,,
7xpp1[8:1]
/
3xqq1[8:1],
64,
5,,
73,,,,
{16}
54,,
2,
8,
2,,
7,
1,
7h[4:1],,
3,,
2,,
1,
8,
1,,
{32}
7,
6,
5,
4,
2,
3,
4,
5,
8,
7,
6,
5,
{8}
1bw5[8:1],
6b/4b,
1b/B1/Cf/B5,
&inote_6=
