&title=bETA GATHER
&artist=SOUND HOLIC feat. Nana Takahashi
&first=0
&des=ImagineWind
&des_5=ImagineWind
&lv_5=13+
&inote_5=(145){4},{1},{4},,,{1}4qq5[1:7]/8V61[1:7],
,,,,,,{4},,,{8}1,
1,
5b,{16}5,3,,3,{8}1,8/2,7,7,7,
4,{16}4,6,,6,{8}8,1/7,2,2,2,
7,{16}7,1,,1,{8}5,4/6,7,6/4,8,
2,{16}2,8,,8,{8}4,5/3,2,3/5,{16}1,1,
{8}7,{16}3,8,,3,{8}8,4/7,4,4,{16}8,8,
{8}2,{16}6,1,,6,{8}1,5/2,5,5,5,
3/4,{16}2,5,,1,{8}6,6/5,{16}7,4,,8,{8}3,
4/5,{16}3,6,,1,{8}6,7b/8b,7b/8b,2b/5b,2b/5b,
3,{16}6,5,{8}6,7/4,3,3,5,5,
5/2,{16}3,4,{8}3,2/5,6,6,2,2,
6/1,{16}7,8,{8}7,6/1,3,3,7,7,
3/8,{16}2,1,{8}2,3/8,6,6,1,1,
2/5,{16}3,4,{8}3,2/5,7/4,{16}6,5,{8}6,7/4,
3/8,{16}2,1,{8}2,3/8,6/1,{16}7,8,{8}7,6/1,
{16}2,5,4,6,1,7,5,6,2,5,4,6,3,5,4,6,
1,7,3,4,2,6,4,5,{8}1b,1b,3b/7b,3b/7b,
{4}6<8[8:1],5,4-7[8:1],3,
3>1[8:1],4,5-2[8:1],6,
7qq8[8:3],4,{8}3,2,{4}1V35[4:1],
{8}8,7,{4}6pp4[8:3],{8}3,3,2,2,
{4}1-3[8:1],8,{8}7<4[8:1],2,{4}2,
3-1[8:1],4,{8}5<8[8:1],2,{4}2,
2pp1[8:3],5,{8}6,7,{4}8V64[4:1],
{8}1,2,{4}3h[4:1],{8}8,8,4,4,
3/5,2,{4}1h[16:3],{8}6,7/8,{4}6/1>4[8:1],
{8}7,7,{4}6h[16:3],{8}2,3/5,{4}4/6<1[8:1],
{8}3,3,{4}4h[16:3],{8}6,7,{4}2/8V64[4:1],
{8}1,2,{4}3qq8[8:3],{8}5,5,6,6,
7-4[8:1],8,{4}1,{8}2,6,1/7,6,
2/5,{16}3,4,{8}3-8[8:1],5,6,6,5/1,2,
3/4-1[8:1],5,6,7,8-3[8:1],7,6,5,
4-8[8:1],5,{4}6h[4:1],{8}1,1,3/7,3/7,
{4}8<4[4:1],4>8[4:1],8<4[4:1],4z8[4:1],
1,3,{8}5/3,1,2/6,5,
{16}3,4,{8}3,{16}3,4,{8}3,2/5,3/6,{4}4/8-4[8:1],
{8}2,2,{4}2-5[8:1],{8}6,6,{4}6h[4:1],
{1}1V75[2:1]*V35[2:1],
{2}5-1[8:1]*-2[8:1],{4}7h[8:1],6h[8:1],
{8}5/2,3,4/6,7,8/2,1,6/8-5[8:1],7,
8-4[8:1],1,{4}8,{8}2b/6b,2b/6b,4b/8b,4b/8b,
3/7,{16}2,2,,1/6h[8:1],{8},{16}2,5,3,4h[8:1],,1h[8:1],,6,
2,2,5,5,{8}3,{16}6,5,{8}7/4-2[8:1],{16}8,8,{8},{16}6,6,
{8}1,{16}7,1,,2/8,,3,8,2,7,1,,6/8,,1,
5,5,2,2,{8}6,{16}3,4,{8}2/5-7[8:1],{16}1,1,{8},{16}3,3,
{8}8,{16}2-5[8:1],1,,2/8,{8},6,{16}7-4[8:1],8,,7/1,{8},2,
{16}3-1[8:1],5,,3/4,{8},7,{16}6-8[8:1],4,,6/5,{8},2,
{16}1>4[8:1],7,{8},1,7,{16}8qq1[8:3],2,{8},8,
{4},4h[4:1],{8}8b,8b,6b/2b,6b/2b,
1/5,{16}2-5[8:1],4,,6,2,7,{8}7,{16}3,3,,4/7,,6,
3,3,4,2,5,1,,7<4[8:1],{8}8,{16}8,7,{8},2,
1/6,{16}7,8,,8,5,3,7,4,5,1,{8}6,3/7,
{16}4,4,8,8,{8}2,{16}4,6<1[8:1],{8}5,{16}5,6,{8},{16}3,3,
{8}8,{16}2>5[8:1],1,,1,{8}2,7,{16}7<4[8:1],8,,8,{8}7,
2,{16}3-1[8:1],4,,4,{8}3,7,{16}6-8[8:1],5,,5,{8}6,
2,{16}1>4[8:1],7,{8},1/8,7,{16}8V61[4:1],2,{8},8/3,
2,2,{16}3,8,4,6,{8}1b,1b,3b/7b,3b/7b,
{4}2-5[8:1],1,{8}3/8<5[8:1],2,{4}1,
2-5[8:1],1,{8}3/7<4[8:1],2,1,8,
{4}7-4[8:1],8,{8}6/1>4[8:1],7,{4}8,
7-4[8:1],8,{8}6/2>5[8:1],7,8,1,
{4}8-4[8:1],1,{8}2/5,6,7/3,2,
{4}1-5[8:1],8,{8}7/4,3,2/6,7,
5/3,1,2/4,6,3/7,7/3,4/8,4/8,
{16}3,7,4,5,2,6,3,5,{8}1,1,3/7,3/7,
{4}2V41[4:1],{8}4,6,{4}7V51[4:1],{8}5,3,
{4}2-5[8:1],{8}6,7,{4}8V64[4:1],{8}3,2,
1,1,2/6,7,5/3,2,4/6,5,
{4}1V35[4:1],5V71[4:1],1>5[4:1],5<1[4:1],
1s5[8:3],6h[8:1],6h[8:1],7h[8:1],
8h[8:1]/4h[8:1],7h[8:1]/3h[8:1],6h[8:1]/2h[8:1],5h[8:1]/1h[8:1],
{16}1,6,4,5,3,6,4,7,1,5,3,6,4,7,2,6,
{2}5h[4:1]/1h[4:1],{8}2b/6b,2b/6b,8b/4b,8b/4b,
{24}7,6,5,2,{48},{16}2,,7h[8:1],{8},{24}1,2,3,6,{48},{16}6,,3,,7,
1,6,4,5,3,7,2,6,{8}4q8[8:1],{16}2,2,{4},{24}1,
2,3,6,{48},{16}6,,2h[8:1],{8},{24}7,6,5,3,{48},{16}3,,6h[8:1],{8},{16}2,
4,3,5,1,6,4,7,{8}5s1[8:1],{16}2,2,{4},{24}2,
3,{12}4,{48},{16}8,,8h[16:3],{8},{24}2,3,{12}4,{48},{16}7,,7/3h[16:3],{8},{24}8,
7,{12}6,{48},{16}1,,1h[16:3],{8},{24}7,6,{12}5,{48},{16}2,,2/6h[16:3],{8},4,
{16}4>1[8:1],5,{8},4,6,{16}6pp4[8:3],8,{8},6/2,
3,3,2,2,3b/7b,3b/7b,5b/1b,5b/1b,
{24}2,3,4,7,{48},{16}7,,6,{8}6,{24}1,2,3,6,{48},{16}6,,5,{8}5,
{16}1,4,2,5,3,6,4,7,{8}1s5[8:1],{16}6,6,{4},{24}7,
6,5,2,{48},{16}2,,3,{8}3,{24}8,7,6,4,{48},{16}4,,3,{8}3,
{16}8,5,7,4,6,2,5,3,{8}8z4[8:1],{16}6,6,{4},{8}7b,
{16}2-5[8:1],1,,1,{8}2,6b,{16}7-4[8:1],8,,8,{8}7,
1b,{16}3>8[8:1],4,,4,{8}3,7b,{16}6<1[8:1],5,,5,{8}6,
3,{16}4-8[8:1],{48}8,,7,,6,{12},{8}4,6,{16}5V74[4:1],{48}1,,2,,3,{12},{8}5,
2,2,{16}1,6,4,5,{8}3b,3b,1b/5b,1b/5b,
{1}3b/7b,
