&title=brainpower
&artist=NOMA
&first=0.05
&lv_5=13+
&des_5=-NICOLABULA-
&inote_5=
(170){4},{1},{4},,,5/8h[8:1],
8h[8:1]/B3/B2/E3,5/8h[8:1],8h[8:1]/B2/B3/E3,
5/8h[8:1],8h[8:1]/B3/B2/E3,5/8h[8:1],8h[8:1]/B2/B3/E3,
4/7h[8:1],7h[8:1]/B2/B1/E2,4/7h[8:1],7h[8:1]/B1/B2/E2,
3/6h[8:1],6h[8:1]/B1/B8/E1,6h[8:1]/3h[8:1],{8}6/3,5/2,
{4}4/1h[8:1],1h[8:1]/B7/E7/B6,4/1h[8:1],1h[8:1]/B7/E7/B6,
4/1h[8:1],1h[8:1]/B7/E7/B6,4/1h[8:1],1h[8:1]/B7/E7/B6,
5/2h[8:1],2h[8:1]/B8/E8/B7,5/2h[8:1],2h[8:1]/B8/E8/B7,
6/3h[8:1],3h[8:1]/B1/E1/B8,{8}3/6h[8:1],4-8[8:1],{4}5/3h[8:1],
2h[8:1],2h[8:1]/B7/E7/B6,5/2h[8:1],2h[8:1]/B7/E7/B6,
6/3h[8:1],3h[8:1]/B8/E8/B7,6/3h[8:1],3h[8:1]/B6/E7/B7,
4/7h[8:1],7h[8:1]/B2/E3/B3,4/6h[8:1],6h[8:1]/B1/E2/B2,
5/2h[8:1],2h[8:1]/B7/E7/B6,6/2h[8:1],2h[8:1]/B7/E7/B6,
{16}7,5,7,5,6,4,6,4,5,3,5,3,4,2,4,2,
5b,3,5,3,6,4,6,4,5b,3,5,3,7,6,5,4,
1b,2,3,4,7b,6,5,4,{32}1,2,3,4,5,6,7,8,{4}1-6-3-8-5[16:13],
{16}1,{8},{16}A6,{8},A3,{16},A8,{8},{4}A5,
8h[8:1]/2-5[8:1],{64}2,B3,{16},,,{32},{4}1h[8:1]/7-4[8:1],{64}7,B6,{16},,,{32},{8}2-5[8:1],
1,{64}2,B3,{16},{32},{8}8h[8:1],2-5[8:1],1,{64}2,B3,{16},{32},{8}8,
{4}1h[4:1]/7-4[8:1],{64}7,B6,{16},,,{32},{4}8h[4:1]/2-5[8:1],{64}2,B3,{16},,,{32},{8}7-4[8:1],
8,{64}7,B6,{16},{32},{8}1h[8:1],7-4[8:1],8,{64}7,B6,{16},{32},{8}1,
{4}7/2-5[8:1],{64}2/1,B3,{16},,,{32},{4}2/7-4[8:1],{64}7/8,B6,{16},,,{32},{8}2-5[8:1],
1,{64}2,B3,{16},{32},{8}8h[8:1],2-5[8:1],1,{64}2,B3,{16},{32},{8}8,
{4}2/7-4[8:1],{64}7/8,B6,{16},,,{32},{4}7/2-5[8:1],{64}1/2z6[4:1],B3,{16},,,{32},{4}2,
{12}8x<5[8:1],8,8,{4}8bx>3[8:1],8b,
2h[4:1]/4-7[8:1],{64}4,B5,{16},,,{32},{4}8h[4:1]/5-2[8:1],{64}5,B4,{16},,,{32},{4}1h[4:1]/4-7[8:1],
{64}4,B5,{16},,,{32},{4}8h[4:1]/5-2[8:1],5<5[2:1],
5,A1/5<5[2:1],1/A5,5/A1,
{8}1/A5,1,2-5[8:1],3,2/6-1[8:1],7,6,3,
{4}4-7[8:1],{64}4/2,B5,{16},,,{32},{4}8h[4:1]/5-2[8:1],{64}5,B4,{16},,,{32},{4}1h[4:1]/4-7[8:1],
{64}4,B5,{16},,,{32},{4}8h[4:1]/5-2[8:1],{64}5<5[2:1],B4,{16},,,{32},{4}5,
A1/5<5[2:1],1,A1/5<5b[2:1],
1,A1/5V31[2:1],1,1w5b[16:3],
{2}A1f,{16}8,4,8,4,{4}8z4[2:1],
{16}8/4,{8},{16}3,{8},2,1b,1,{4}5h[4:1]/1>5[8:3],
{16},6,7,8,{4}1z5[2:1],{8}1/4,4,{4}4,
4h[4:1],{8}8<4[16:3],8,{16}4,3,2,1,8,7,6,5,
{4}4h[4:1],8s4[2:1],{16}4/8,{8},{16}3,{8},2,
{4}1h[2:1],5<1[4:1],{16},2,3,4,{4}5-2v8[2:1],
5/7,{8}7,7,{4}5,5<1[4:1],
{16}1,2,3,4,5,6,7,8,1,2,3,4,{4}5b/8b<3[4:1],
3-7[8:1],A3f/1>6[4:1],6-2[8:1],A6f/8b<3[4:1],
3-7[8:1],A3f/1>6[4:1],6-2[8:1],A6f/8b<3[4:1],
3-7[8:1],A3f/1>6[4:1],6-2[8:1],A6f/8b<3[4:1],
3>8b[4:1],A3f/8<4[4:1],A8/4v7[8:1]*v1[8:1],A4f,
8b<3[4:1],3-7[8:1],A3f/1>6[4:1],6-2[8:1],
A6f/8b<3[4:1],3-7[8:1],A3f/1>6[4:1],6-2[8:1],
A6f/8b<3[4:1],3-7[8:1],A3f/1>6[4:1],6-2[8:1],
A6f/8<3[4:1],8/3>8b[4:1],(173)A3f/8<4[4:1],A8/4v7[8:1]*v1[8:1],
A4f,{8}2/6,7/3h[8:1],{24}8,7,6,5h[8:1],{12},{16}3,5,4,6,
5b,{8},{16}6/4bx,{8},5/2bx,{16},4/1bx,{8},3bx/5x-3-6-2-7-1-7-2-6-3b[16:19],6/4bx,
7/5bx,A3,A6,A2,A7,A1,A7,A2,
8/A6,8,8,8h[8:1],2h[8:1],5,6/4x-6-3-7-2-8-2-7-3-6b[16:19],3/5,
2/4bx,A6,A3,A7,A2,A8,A2,A7,
1/A3,1,1,1h[8:1],6h[8:1],4,3/5x-3-6-2-7-1-7-2-6-3b[16:19],6/4,
7/5bx,A3,A6,A2,A7,A1,A7,A2,
8/A6,8,8,8h[8:1],2h[8:1],5,6/4x-6-3-7-2-8-2-7-3-6b[16:19],3/5,
2/4bx,A6,A3,A7,A2,A8,A2,A7,
1/A3,1,1,1h[8:1],6h[8:1],3,2/7-4-8-4-7-4-8-4-7b[1:1],6/3,
2/7bx,A4,1/A8f,A4,3/A7f,A4,1/A8f,A4,
3/A7f,3,3h[8:1],6h[8:1],4h[8:1],5,7/2-5-1-5-2-5-1-5-2b[1:1],3/6,
7/2bx,A5,8/A1f,A5,6/A2f,A5,8/A1f,A5,
6/A2f,6,6h[8:1],3h[8:1],5h[8:1],4,2/7-4-8-4-7-4-8-4-7b[1:1],6/3,
2/7bx,A4,1/A8f,A4,3/A7f,A4,1/A8f,A4,
3/A7f,3,3h[8:1],6h[8:1],4h[8:1],5,7/2-5-1-5-2-5-1-5-2b[1:1],3/6,
7/2bx,A5,8/A1f,A5,6/A2f,A5,8/A1f,A5,
6/A2f,6,1/6h[8:1],2,3/5,6,4/7<7<7<7<7b[1:1],3,
{4}2/7bx,{8}A7f/D7f,A3,A7f/D7f,A3,A7f/D7f,A3,
4x/A7f/D7f,4x,8/4h[8:1],7,4/6,3,5/2>2>2>2>2b[1:1],6,
{4}7/2bx,{8}A2f/D3f,A6,A2f/D3f,A6,A2f/D3f,A6,
5x/A2f/D3f,5x,1/5h[8:1],2,3/5,6,4/7<7<7<7<7<7<7<7<7b[1:2],3,
{4}2/7bx,{8}A7f/D7f,A3,A7f/D7f,A3,A7f/D7f,A3,
A7f/D7f,A3,A7f/D7f,A3,A7f/D7f,A3,A7f/D7f,A3,
{4}A7f/D7f,{16}2b,3,4,5,8b,7,6,5,2b,3,4,5,
8b,7,6,5,1b/4,2,3,4,{32}5/8b,7,6,5,4,3,2,1,{4}8b-4b[1:2],
{1}8h[1:2],
