&title=巩金瓯(Hardcore Remix)
&artist=佚名
&first=0.04
&lv_2=5
&des_2=JLKK
&inote_2=
(232){4},,,,,,,,,,,,,,,,,,,,{1}E2,
B1,
B8,
E8,
7xh[1:1],
,6h[1:1],
,5h[1:1],
,4bx,
{2},,5,
5,
{1}5,
{2}6,6,
{1}5/6,
{2}4,4,
{1}4,
{2}3,3,
{1}3/4,
{2}5,5,
5,5/4,
6,6,
6,6/4,
3,3,
3,3/4,
{1}5xh[1:1]/4xh[1:1],
{2},,5,
5,
6,6,
7,7,
{1}8h[2:1],
{2}8,8,
7,7,
6,6,
{1}5h[2:1],
{2}4,4,
3,3,
2,2,
{1}1h[2:1],
{2}1,1,
2,2,
3,3,
{1}4b,
{2}4,4,
5/4,5/4,
3,3,
{1}3/5,
{2}5,5,
5/4,5/4,
6,6,
{1}6/4,
{2}7,7,
7/8,7/8,
{1}7h[1:1],
{2},,1,
1,
2,2,
{1}2bh[1:2]/7bh[1:2],
,,,,,4x,
4x,
4x,
4x/5x,
{2}4/5,5/4,
3,3,
4/5,5/4,
6,6,
5/6,6/5,
7,7,
{1}8-5[4:5],
{2},,4/3,
3/4,
2,2,
4/2,2/4,
{1}4/2,
{2}2,2,
1,1,
1/8,8/1,
{1}1bh[1:1]/8bh[1:1],
,,,,Ch[1:2],
{2},,,,,,1/8,
8/1,
2/7,7/2,
6/3,3/6,
{1}5h[2:1]/4h[2:1],
{2}4/3,4/3,
5/2,2/5,
6/1,1/6,
{1}7h[2:1]/8h[2:1],
{2}7,7-2[4:3],
,,2,
2-7[4:3],
,,7,
7,
7/1,1/7,
{1}2b-5b[4:7]/8b-5b[4:7],
E
&lv_3=9
&des_3=JLKK
&inote_3=
(232){4},,,,{1}6bxh[2:1]/5bxh[2:1],
6xh[2:1]/5xh[2:1],
4xh[2:1]/3xh[2:1],
4xh[2:1]/3xh[2:1],
2h[1:1],
1h[1:1],
8h[1:1],
7h[1:1],
{2}6,6,
5/7,7/5,
4,4,
5/3,3/5,
{4}4,4,{2}3,
{4}5,5,{2}6,
B6,B2,
{1}C,
{2}4/3,4/5,
4/3,5/4,
3/4h[2:3],2,
1,2,
5/4,5/6,
5/4,5/6,
6/5h[2:3],7,
8,7,
{4}6/4,6/4,5,5,
5/3,3/5,4,4,
4/6,6/4,5,5,
5/3,3/5,4,4,
{8}5x,5x,{4}5x,5/7,5/7,
{8}4x,4x,{4}4x,4/2,4/2,
{1}Cfh[2:3],
{4},,,,3,
4,3,3/6,
6,5,6,6/3,
3/4,4/3,6/5,5/6h[1:1],
2,2,1b,1b,
1/7,7/1,8/1,1/8,
8/2,8/2,6/2,2/6,
5-8[2:1],3xh[2:1],,,7<4[2:1],
2xh[2:1],,,7/5,
7/5,6,6,
4/3,3/4,2,2,
1/8,8/1,1,1,
8/7,7/8,1,1,
{2}6h[2:1]/2h[4:1],{4}1,1,
{2}2h[2:1]/8h[4:1],{4}5,5,
{1}5<8[4:3]/4>1[4:3],
{4},,,,1,
8,1,8,
1,8,1,8,
2,7,2,7,
2b,7b,2b,7b,
1,8,1,8,
2,7,2,7,
3,6,3,6,
{2}4h[2:1],{4}5b,5b,
4,5,4,5,
4,5,4,5,
3,6,3,6,
3b,6b,3b,6b,
2,7,2,7,
2,7,2,7,
{1}2qq7[4:7],
,,,,,6xh[4:15],
,3xh[4:7],
{4},,,,3/6,
6/3,2,2,
6/3,3/6,7,7,
6/3,3/6,5/4,4/5,
{2}3-8[4:1],7-4[4:1],
{4}2,2,1/3,3/1,
8,8,7/1,7/1,
8,7,6,5,
{1}4bw8[2:1],
{4}7/8,8/7,6/8,8/6,
8/7,8/7,8/6,6/8,
8/1,1/8,1/2,2/1,
1/8,8/1,2/1,1/2,
4/3,3/4,5/3,3/5,
4/3,4/3,5/3,4/6,
7/5,5/7,6/5,6<3[1:1]/5q3[1:1],
{1},,,,,Ch[1:2],
{4},,,,,,,,,,,,8/7,
6/1,{2}7x-4[8:1]/8x-4[8:1],
{4}2/1,3/8,{2}2x-5[8:1]/1x-5[8:1],
{4}8/7,6/1,{2}7-4[8:1]/8-4[8:1],
{4}2/1,3/8,{2}2-5[8:1]/1-5[8:1],
{4}7,7,6x-3[8:1],4,
2,2,3x-6[8:1],5,
7,8,1,2,
3/5,5pp7b[4:1]/3qq1b[4:1],,,2,
2,1/7,7/1,
{8}8x,8x,8x,8x,{2}8bx,
{4}7,7,8/2,8/2,
{8}1x,1x,1x,1x,{2}1bx,
{4}2/3,3/2,2/4,4/2,
2/5,5/2,2/6,6/2,
{2}2h[4:1]/7h[4:1],{8}7/2,7/2,7/2,7/2,
{1}2V41b[4:3]/7V58b[4:3],
E
&lv_4=12+
&des_4=JLKK
&inote_4=
(232){4},,,,{1}8bxh[4:3]/1bxh[4:3],
7h[4:3]/2h[4:3],
3h[4:3]/6h[4:3],
{2}4h[4:1]/5h[4:1],{4}4/5,6/3,
4/5b<8[4:5],8,1,2,
{8}1,1,{4}2,3,4,
4b>1[4:5],1,8,7,
{8}8,8,{4}7,6,5,
{2}5h[4:1]/6h[4:1],5h[4:1]/7h[4:1],
5h[4:1]/6h[4:1],{4}5/6,3/4,
{2}3h[2:1],1bh[2:1],
7bh[2:1],5bh[4:1],
{8}6,5,6,5,{4}1b,1b,
{8}6,5,6,5,{4}8b,8b,
{1}Ch[1:1],
{4},,,,5/3,
{8}3x,4x,{2}2xh[4:1],
{4}4/6,{8}6x,5x,{2}7xh[4:1],
{8}8,8,6,6,4,4,2,2,
{1}1V75[2:1]*V35[2:1],
{4}4/6h[2:1],{8}5,5,{2}4-1[8:1],
{4}8h[2:1],{8}7,7,{2}1-5[8:1],
{4}3h[8:1]/4h[8:1],3h[8:1]/4h[8:1],5h[8:1]/6h[8:1],7h[8:1]/5h[8:1],
{1}8pp3[2:1]*qq5[2:1],
{4}7/5,5/7,{8}5,5,7,7,
1,1,3,3,{2}4h[4:1],
{4}3/5,5/3,{8}4,4,2,2,
8,8,6,6,{2}5h[4:1],
{8}6,5,{4}7,{8}3,4,{4}2,
{8}8x,7x,8x,8x,1x,2x,1x,1x,
{4}8h[4:1],6h[4:1],4h[4:1],3h[4:1],
2<6v3b[2:1],,,B1/E1f/B8,
4/3,4/2,3/4,4/1,
4/3,4/5,5/6,4/7,
7/3,5/8,1/3,7/6,
{2}6-3[8:1]/8-3[8:1],4-7[8:1]*-1[8:1],
{4}7/8,8/1,{8}1/2,2/1,{4}2/1,
3/5,6/4,{8}5/4,5/4,{4}4/5,
4/2V46[2:1],6,8,8,
7-5[4:1],5-3[4:1],2,1b,
8/7,6/8,{8}8/7x,7x,{4}7x/1,
1/2,1/3,{8}1/2x,2x,{4}2x/8,
7/1,6/8,{8}7x/5,7x,{4}7x/4,
3-7[8:1],8-4[8:1],2>5[8:1],5b,
7/6,6/7,{8}8/1,1/8,{4}1/8,
2/3,3/2,{8}1/8,1/8,{4}8/1>8[1:1],
{1}Cf,
{4}2,4,6,8,
1x-6[8:1],7x-4[8:1],2x-5[8:1],8x-3[8:1],
1x-6[8:1],7x-4[8:1],2x-5[8:1],8x-3[8:1],
1x-6[8:1],7x-4[8:1],2x-5[8:1],8x-3[8:1],
1x,2,{8}3/4,3,{4}3/6,
4x-7[8:1],6x-1[8:1],3x-8[8:1],5x-2[8:1],
4x-7[8:1],6x-1[8:1],3x-8[8:1],5x-2[8:1],
4x-7[8:1],6x-1[8:1],3x-8[8:1],5x-2[8:1],
4x,3,{8}2/6,6/2,{4}2/6,
1x-6[8:1],7x-4[8:1],2x-5[8:1],8x-3[8:1],
1x-6[8:1],7x-4[8:1],2x-5[8:1],8x-3[8:1],
1x-6[8:1],7x-4[8:1],2x-5[8:1],8x-3[8:1],
1x,2,{8}3/4,3,{4}3/5,
5/7,5/6-1[8:1],3,2,
3/1,1/2-5[8:1],7,6,
{8}5bx/2bx,,,7bx/4bx,,,{4}5bx/3bx,
{8}4bx/8bx,,,5bx/1bx,,,{4}4bx/2bx,
{1}3b/Cf,
{4},,,,,,,,,,,E8,
E6,,,E2,
E4,,,B8,
B5,,,B1,
B4,E6/B6,B1/E2/B2,7xh[4:1]/B4/E5f/B5,
2,2/1,2/4,2/1,
5/7,8/7,7/5,7/8,
4/2,2/8,4/2,2/8,
5/7,7/1,5/7,7/1,
3/4-1[8:1],3,3/4-7[8:1],3,
6/5-8[8:1],6,6/5-2[8:1],6,
{8}1,1,{4}1/7,8,{8}6/5,5,
{1}5v2[2:1]/7v2[2:1],
{8}3,4,3,4,2,4,2,4,
3,4,3w7[4:1],4,,,,,6,
5,6,5,7,5,7,5,
6,5,6w2[4:1],5,,,,,3,
3,4,4,3>1[8:1],3,,,8,
8,7,7,8-4[8:1],8,,,5,
5,3,3,1,1,7-5-8-4-1-3b[1:1],7,
,,,,,,,,{1}Cf,
,,,Ch[1:2],
{4},,,,,,,,,,B8,
{8}8bx,8bx,
{4}8bx/3x,3/8,6/1,1/6,
{2}3/8-4[8:1],6/1-5[8:1],
{4}8/3,8/3,6/1,1/6,
3/8-4[8:1],4,6/1-5[8:1],5,
7/4,7/4,2/5,2/5,
{8}7/4-2[8:1],4,,,8-6[8:1]/1-5[8:1],1/8,,,7/4,
7/4,{4}5/6,{8}2/1,2/1,{4}3/8,
6/2,5/1,{2}8b>2b[8:1]/4b<6b[8:1],
{8}7x/3x,7x/3x,3x/7x,7x/3x,{4}2/6,6/2,
{8}5x/3x,3x/5x,3x/5x,5x/3x,{4}4,6,
{8}6x/8x,6x/8x,6x/8x,6x/8x,7x/1x,7x/1x,7x/1x,7x/1x,
8x/2x,8x/2x,2xv5[4:1]/8xv5[4:1],8x/2x,,,,,{2}6<8[8:1],
3>1[8:1],
8-5[8:1],4-1[8:1]*q1[8:1],
{8}1x,1x,8x,8x,1,1,8,8,
{16}1,8,1,8,1,8,1,8,1,8,1,8,1,8,1,8,
{1}1b,
E
&lv_5=13+
&des_5=JLKK
&inote_5=
(232){4},,,,{1}1x/5x-8-2-7-3-6-4[4:11],
{2},,,,,,B6,
B7,
B8,B1,
B2,B3,
B4,B5/C,
{4}6/4,5,5/7,6,
8/4h[2:1],7,6,{8}3,3,
{4}3/5,4,4/2,3,
1/5h[2:1],2,3,{8}6,6,
{2}6/3-6[4:1],7-2[4:1],
{1}3q6[2:1],
4bh[4:3]/5h[4:3],
{4}5/4b,6/3b,{8}7v4[8:1]/2bv5b[8:1],2b/7,{4}2b/7,
7-3[8:1],{8}8,8,{4}1,1,
2-6[8:1],{8}1,1,{4}8,8/1,
{8}1/2,3,4/5,6,{4}7/8h[4:1],1,
7-3[8:1],8-4[8:1],{2}1pp3[8:1]*qq7[8:1],
{4}5h[2:1],2pp7[4:1],,,4h[2:1],
7qq2[4:1],{8},,,,8/7,
6,5/4,3,{4}2/1h[4:1],8,
7/2,6/3-5[8:1],3b/7b-3[8:1],1b/7b,
2-4[8:1],2/1,1-5[8:1],1/8,
8<5[8:1],{8}8/4,4,{4}3,1b/5b,
{8}4x/6xh[8:1],3x,4x/2xh[8:1],5x,4x/6xh[8:1],3x,4x/2xh[8:1],5x,
4x/6xh[8:1],3x,4x/2xh[8:1],5x,4x/6xh[8:1],3x,{4}2xh[8:1]/4V68[1:2],
3h[8:1],1h[8:1],3h[8:1],2h[8:1],
5h[8:1],4h[8:1],2h[8:1],8-4[8:1],
8x/3x-7[8:1],3x/6x-3[8:1],{8}6x/1x-5[8:1],1x,{4}1x/8xw4b[2:1],
,,,E1f/B1/B8,
7/5-2[8:1],5/6,7/5-1[8:1],5/6,
2/4-8[8:1],4/3-1[8:1],3/5-7[8:1],5/4,
4/6-2[8:1],6/3,4/6-8[8:1],6/3,
2>5[8:1]/1q5[8:1],2/1<6[8:1],1>4[8:1],1x,
8/7-4[8:1],7/2,8/7-5[8:1],7/1,
4/3-6[8:1],3/5,8/7-2[8:1],7/1-5[8:1],
1/8-4[8:1],8/3-7[8:1],3/6>3[8:1],6-4-8-2b[4:3],
,,,,6/5-3[8:1],
7/5,5/4-2[8:1],6/4,
4/3-8[8:1],3/7-4[8:1],7/1-4[8:1],1<6[8:1],
1>4[8:1],1-6[8:1],1-4[8:1],1-5[8:1],
1b,{8}2,2,{2}3-7[8:1]/4-8[8:1],
{4}6-1[8:1],6/5,6-8[8:1],6/5,
6/5v4[8:1],8/5,7/3-6[8:1],3/6,
7h[8:1]/4h[8:1],3/6,5h[8:1]/2h[8:1],4b/1b>4[4:3],
{1}Cfh[4:3],
{4}2-7[8:1],2/6-3[8:1],6/2-7[8:1],2/6-3[8:1],
6/2-5[8:1],2/8-4[8:1],8/1-4[8:1],{8}1/7x<5[8:1],7x,
{4}7/3-5[8:1],3/6-2[8:1],6/4-8[8:1],4/7-3[8:1],
7/1>3[8:1],1/8<5[8:1],8/4-8[8:1],{8}4/6x-3[8:1],6x,
{4}6/2-7[8:1],2/6-3[8:1],6/2-7[8:1],2/6-1[8:1],
6/2-5[8:1],2/8-5[8:1],8/1-4[8:1],{8}1/7x-3[8:1],7x,
{4}7/2-7[8:1],2/5-1[8:1],5/3-7[8:1],3/6>7[4:3],
,,,Cf,
7-2[8:1],7/3-6[8:1],3/7-2[8:1],7/3-6[8:1],
3/7-4[8:1],7/1-5[8:1],1/8-5[8:1],{8}8/2x>4[8:1],2x,
{4}2/6-4[8:1],6/3-7[8:1],3/5-1[8:1],5/2-6[8:1],
2/8-6[8:1],8/1>4[8:1],1/5-1[8:1],{8}5/3x-6[8:1],3x,
{4}3/7-2[8:1],7/3-6[8:1],3/7-2[8:1],7/3-8[8:1],
3/7-4[8:1],7/1-4[8:1],1/8-5[8:1],{8}8/2x-6[8:1],2x,
{1}2<7-3<6b[4:7],
,E5f/B5/B4,
,,,1-4[4:1],
8-5[4:1],
{4}3qq8[2:1],4<7[4:1],{8},,,,3b/7b,
2b/6b,3bV51[8:3]/7bV51[8:3],6b/2b,,,,,{4}7/1>3[8:1],
1/8,7/1>3[8:1],1/8,
2/8-3[8:1],8/7-4[8:1],{2}7/5w1b[8:1],
{4}2/8<6[8:1],8/1,2/8<6[8:1],8/1,
7/1-6[8:1],1/2-5[8:1],{8}2/4,4,{4}4b,
3/4-1[8:1],2/4,3/4-8[8:1],4/5,
5/6-8[8:1],6/5-1[8:1],5/7-2[8:1],7b,
{2}4>1[8:1],8<5[8:1],
{4}4b-7[8:1],2b-5[8:1],8b-3[8:1],6b,
7-4[8:1],7/1-5[8:1],1/8-4[8:1],8/2-5[8:1],
2/1-5[8:1],1/3<5[8:1],3/6-3[8:1],{8}6/1x-4[8:1],1x,
{4}1/8-3[8:1],2-6[8:1],2/7-3[8:1],7/1-4[8:1],
1pp6[2:1],Cf,{8},,,,5/7p3[4:1],
7,{4}3>7[4:1],{8},,,,4/2q6[4:1],
2,{4}6<2[4:1],,,7p3[4:1],
3p7[4:1],7<4[4:1],4>1[4:1],
{1}1qq5[4:3],
E1f/B8/B1,
,,,Ch[1:2],
{2},,,,B1/B5,
{4}5/1,5/1,
{32}1x,2x,3x,4x,5x,6x,7x,8x,1x,2x,3x,4x,5x,6x,7x,8x,1x,2x,3x,4x,5x,6x,7x,8x,1x,2x,3x,4x,5x,6x,7x,8x,
1x,2x,3x,4x,5x,6x,7x,8x,1x,2x,3x,4x,5x,6x,7x,8x,1x,2x,3x,4x,5x,6x,7x,8x,1x,2x,3x,4x,5x,6x,7x,8x,
1bx,2x,3x,4x,5x,6x,7x,8x,1x,2x,3x,4x,5x,6x,7x,8x,1bx,2x,3x,4x,5x,6x,7x,8x,1x,2x,3x,4x,5x,6x,7x,8x,
{4}1bx,1V35[4:1]/5V71[4:1],{32},,,,,,,,,,,,,,,,8x,
7x,6x,5x,4x,3x,2x,1x,8x,7x,6x,5x,4x,3x,2x,1x,8x,7x,6x,5x,4x,3x,2x,1x,8x,7x,6x,5x,4x,3x,2x,1x,
8x,7x,6x,5x,4x,3x,2x,1x,8x,7x,6x,5x,4x,3x,2x,1x,8x,7x,6x,5x,4x,3x,2x,1x,8x,7x,6x,5x,4x,3x,2x,1x,
8bx,7x,6x,5x,4x,3x,2x,1x,8x,7x,6x,5x,4x,3x,2x,1x,8bx,7x,6x,5x,4x,3x,2x,1x,8x,7x,6x,5x,4x,3x,2x,1x,
{4}8bx,8V64[4:1]/4V28[4:1],,,7-1[8:1],
7<4[8:1],7b/3>8[8:1],3b,
2-8[8:1],2>5[8:1],2b/6<1[8:1],6b,
{2}1-6[8:1]/5-2[8:1],4-7[8:1]/8-3[8:1],
{4}2<8[8:1],2bp6[8:1],2b>4[8:1]*v4[8:1],2b,
6-4[8:1],6<1[8:1],6b/2>5[8:1],2b,
3-5[8:1],3>8[8:1],3b/7<4[8:1],7b,
{2}4-7[8:1]/8-3[8:1],1-6[8:1]/5-2[8:1],
{32}1x,8x,7x,6x,,,,,1x-5[8:1],2x,3x,4x,,,,,{4}1-3[8:1]*-7[8:1],1w5b[8:1],
{32}1b/B1f,B8/B2,C,B6/B4/B5,
E
&lv_6=14
&des_6=JLKK
&inote_6=
(232){4},,,,{1}1xh[1:3]/5-8-2-7-3-6-4b[4:13],
{4},,,,,,,,,,1,
2,
3/5,4,4/6,5,
5/7,6,6/4,{8}5,5,
{1}5-8[2:1]/3-8[2:1],
8qq5[2:1]/2pp5[2:1],
{4}5bh[8:1]/4bh[8:1],6/3,6,7,
6/1,8,7/2,{8}8,8,
{4}1,8,1/8,2,
2/1,3/8,7/4,5/6,
{8}6xh`5xh,7,{4}8/1,1/3,4/2,
{8}4xh`3xh,2,{4}1/8,{8}8/6,8/6,5/7,5/7,
{2}6-8[8:1]/4-8[8:1],5-1[8:1]/3-1[8:1],
{4}Cfh[4:3],,,B7/B6/B2/B3,
{16}1,,,8,{8}1,2,{2}2-4[8:1]*-8[8:1],
{16}8,,,1,{8}8,7,{2}7-5[8:1]*-1[8:1],
{32}1,2,3,4,{8}5h[8:1],,5,5/3,4,4/2,3,
{4}2-7[8:1],6-3[8:1],1-4[8:1],5,
{16}8,,,1,{8}8,7,{2}7-5[8:1]*-1[8:1],
{16}1,,,8,{8}1,2,{2}2-4[8:1]*-8[8:1],
{32}8,7,6,5,{8}4h[8:1],,4,4/6,5,5/7,6,
{4}7-2[8:1],3-6[8:1],8-5[8:1],4>1[4:7],
5,5,{16}6,,,5,{8}6,6,
{16}7,,,8,{8}7,7,{4}6,5<8b[4:7],
4,4,{16}3,,,4,{8}3,3,
{16}2,,,1,{8}2,2,{4}3,4,
{8}6-2[8:1],6,5-1[8:1],5,4-8[8:1],4,3-7[8:1],3,
2-6[8:1],2,1-3-5-7[4:1],1,,,,,{2}8-4[8:1]/7-4[8:1],
1-5[8:1]/2-5[8:1],
{16}4,5,4,5,{32}4,5,6,7,8,1,2,3,{4}4w8[8:1],{32}4b/B4f,B3/B5,C,B7/B1/B8,,,,,{4}6/2-5[8:1],
2/7-4[8:1],7/2-5[8:1],2/7-5[8:1],
7/8-4[8:1],8/1-5[8:1],1/2-4[8:1],2/6-2[8:1],
6/3-7[8:1],3/8-5[8:1],8/3-6[8:1],3/2-4[8:1],
2b/1-5[8:1],1b/8-4[8:1],8b/7-5[8:1],7b/1>3[8:1],
1<7[8:1]/6v4[2:1],1>3[8:1],1<7[8:1],1>3[8:1],
1<7[8:1]/4v6[2:1],1>3[8:1],1<7[8:1],1,
{2}1w5[8:1],8w4[8:1],
{16}2,3,2,3,2,3,2,3,{8}2,2b/6b,1b/5b,8b/4b,
{4}3/7-4[8:1],7/2-5[8:1],2/7-4[8:1],7/2-4[8:1],
2/1-5[8:1],1/8-4[8:1],8/7-5[8:1],7/3-7[8:1],
3/6-2[8:1],6/1-4[8:1],1/6-3[8:1],6/7-5[8:1],
7b/8-4[8:1],8b/1-5[8:1],1b/2-4[8:1],2b/8<6[8:1],
8>2[8:1]/3v5b[2:1],8<6[8:1],8>2[8:1],8<6[8:1],
8>2[8:1]/5v3b[2:1],8<6[8:1],8>2[8:1],8z4>5[2:3],
{1}Cf,
{4},,,2/6,
{8}2-5[8:1],2,7-4[8:1],7,1-5[8:1],1,8-4[8:1],8,
2-5[8:1],2,7-4[8:1],7,1-4[8:1],1,8-5[8:1],8,
2-4[8:1],2,7-5[8:1],7,3,3,2,2,
{4}1-3[8:1],1/7-1[8:1],7/5-7[8:1],5,
{8}4-1[8:1],4,8-4[8:1],8,2,1b,{4}1b,
{8}5-8[8:1],5,1-5[8:1],1,7,8b,{4}8b,
{8}6-2[8:1],6,3-5[8:1],3,7-1[8:1],7,2,2,
3,3,4,4,{32}4b,5,6,7,,,,,8b/7b,1/6,2/5,3/4,,,,,{8}7-4[8:1],
7,2-5[8:1],2,8-4[8:1],8,1-5[8:1],1,
7-4[8:1],7,2-5[8:1],2,8-5[8:1],8,1-4[8:1],1,
7-5[8:1],7,2-4[8:1],2,6,6,7,7,
{4}8>3[8:1],8<5[8:1],8-4[8:1],8b,
{8}5-8[8:1],5,1-5[8:1],1,7,8b,{4}8b,
{8}4-1[8:1],4,8-4[8:1],8,2,1b,{4}1b,
{8}8b/E4f/B3/B4,,,2b/E7f/B6/B7,,,{4}7b/E3f/B2/B3,
{8}4b/E8f/B7/B8,,,5b/B1/E1f/B8,,,{4}1b>8[1:2],
,,,,,,,,,,,,,,,,{2}E2,
B2,
B3,E4,
{4}5<8[8:1],1,1>4[8:1],5,
{8}6,6,7,7,{4}8/4,8/4,
{16}8b/Cf,7,6,5,4,3,2,1,8,7,6,5,4,3,2,1,
8b/Cf,7,6,5,4,3,2,1,8,7,6,5,4,3,2,1,
8b/Cf,7,6,5,4,3,2,1,8,7,6,5,4,3,2,1,
{4}8b,7,6,5/1,
{16}1b/Cf,2,3,4,5,6,7,8,1,2,3,4,5,6,7,8,
1b/Cf,2,3,4,5,6,7,8,1,2,3,4,5,6,7,8,
1b/Cf,2,3,4,5,6,7,8,1,2,3,4,5,6,7,8,
{4}1b,2,3,4/8,
{32}8b,7,6,5,4,3,2,1,8b,7,6,5,4,3,2,1,{2}8x-4[8:1],
{32}1b,2,3,4,5,6,7,8,1b,2,3,4,5,6,7,8,{2}1x-5[8:1],
{4}6h[8:1]/4h[8:1],8h[8:1]/2h[8:1],5h[8:1]/1h[8:1],6h[8:1]/7h[8:1],
{8}5V71[4:1],5,1V35[4:1],1,5,5,{4}1b,
{32}8b,7,6,5,4,3,2,1,8b,7,6,5,4,3,2,1,{2}8-4[8:1],
{32}1b,2,3,4,5,6,7,8,1b,2,3,4,5,6,7,8,{2}1-5[8:1],
{8}6-2[8:1],6,4-8[8:1],4,7<4[8:1],7,1>4[8:1],1,
{4}8-4[8:1],8-6[8:1]*-2[8:1],8w4[8:1],8b,
{1}Cf/B8/B7/E8/B1/B2/E1/E2/E3/E7/B3/B6,
,,,Ch[1:2],
,B8/B1,
{4},,2,2,
{8}2>4[8:1],1,7<5[8:1],8,2>4[8:1],1,7<5[8:1],8,
2>4[8:1],1,7<5[8:1],8,2>4[8:1],1,6,6,
7<5[8:1],8,7/2>4[8:1],1,2/7<5[8:1],8,7/2>4[8:1],1,
2/7<5[8:1],8,7/2>4[8:1],1,2/7<5[8:1],8,3,3,
7<4[8:1],7,8v3[8:1],8,7<4[8:1],7,8v3[8:1],8,
7<4[8:1],7,8v3[8:1],8,7<4[8:1],7,8,8,
6,6,4,4,2/6,1/5,8/4,7/3,
{4}6b-2[8:1],2bw6[8:1],{2}6bw2[8:1],
{8}3/1,1/3,2>5[8:1],2,{32}5,6,7,8,{8}1,{4}1b,
{8}7/5,5/7,6<1[8:1],6,{32}1,2,3,4,{8}5,{4}5b,
{24}8/1,7x,6x,5/4,3x,2x,1/8,2,3,4/5,6,7,8/1,7,6,5/4,3,2,1/8,2,3,4/5,6,7,
{8}8,7,6/4,3,{24}2,3,4,5,6,7,8,1b/5b,,,,,{8}6/8,
8/6,7<4[8:1],7,{32}4,3,2,1,{8}8,{4}8b,
{8}2/4,4/2,3>8[8:1],3,{32}8,7,6,5,{8}4,{4}4b,
4xh[32:59]/5xh[16:1],6,7,8,
{16}1b,,,8b,{32},,,8b,,,,,{16}1b,,,8b,{32},,,8b,,E8/E4,B7/B3,B6/B2,
{1}E2f/E6f,
E
