&title=Go or Stay
&artist=Zris
&first=0
&des=Ir1s
&lv_5=12
&inote_5=(138)
{1},,{4},,,
{16},,6<3[8:11],5q4[16:21],
{4}7,,,,,,,,6<3[8:9]/5q4[8:9],,,
,,,{8}7h[8:1],5h[8:1],4h[8:1],3qq7[8:11],
{4}4q6[8:10],,,,,,,,
3qq7[8:10]/4q6[8:10],,,,
,,,{16}1,2,3,4,
{8}5-8[2:1],,4,4,,2,,17,
,56,,3-5[8:1],7-3[6:1],,,,
5-8[2:1],,4,4,,2,,17,
,6-8[8:1],8-4[8:1],1-3[8:1],3-5[8:1],,,,
7b-4[8:1]/5b,,3,3-7[8:1],,8-3[8:1],,
5-1[16:2],,6,6,{16}7v5[16:3],3,{8}7V13[24:5],,,,
,5^2[8:1],6,75,,7^4[8:1],8,17,
,1^6[8:1],2,31,,5-3[8:1],,57,
6h[4:1],4-7[8:1],2h[8:3],4,,8-3[8:1],,68,
{16},,3,5,{8}4h[4:1],,{16}7v6[16:3],,,6-4[8:1],,,1,,
{8}1-7[8:1]*-3[8:1],,1,,{16}7v6[16:3],,,6-4[8:1],,,1,,
3v2[16:3],,,2-8[8:1],,,5-7[8:1],,,5V31[16:3],,,,,,,
{8}7-1[8:1],3-7[8:1],7<1[8:3],3,,1,,,
6-8[8:1],2-6[8:1],6>8[8:3],2,,8,,,
5-7[8:1],1-5[8:1],5>7[16:5],1,,7,,5^8[8:1]*-3[8:1],
5,,,1,34,45,56,18,
3-1[8:1],2,7-5[8:1],6,2-8[8:1],1,6V48[4:1],5,
,{16}3,2,1,,7,,7h[16:3],,,5h[16:3],,,4h[16:3],,
,2h[16:3],,,8h[16:3],,,4h[16:3],,,6h[16:3],,,
1,2,3,{4}4p8[16:3]*pp6[16:3],4,{8},5,4,3,
2^4[8:1],2,7,7,3^5[8:1],3,8,8,
4^6[8:1],4,1,1,82,82,37,37,
6h[8:3]/4,3,2,1h[8:3],,{16}2,3,4,,3,4,
{8}5-7[8:1],,1-5[8:1],2,3V57[4:1],,,,
2-8[8:1],6-2[8:1],2>8[16:6],6,,8,,,
3-1[8:1],7-3[8:1],3<1[16:6],7,,1,,,
4-2[8:1],8-4[8:1],4<2[16:6],8,,2,,4,
35,35,17,17,56,34,1-5[8:1]/2,78,
{1}1b>8[32:60],,
{2}1^4[32:23],3^6[32:23],5^8[32:23],7^2[32:23],
1^4[32:23],3^6[32:23],5^8[32:23],7^2[32:23],
1^4[32:23],3<8[64:75],,3-5[8:1],
{8}6h[2:1]/5,,8,,5,56,,4,
,31,,7,7^4[8:1]/8p4[8:1],,,,
3h[2:1]/4,,1,,4,43,,7,
81,81,82,73,6/4p8[8:1]*^1[8:1],,4,,
{12}7,4,4,6,3,3,5,2,2,4,1,1,
8,5,5,6,2,2,7,4,4,5,2,2,
8,1,1,2,3,3,4,5,5,6,7,7,
{16}8h[16:3],,,1h[16:3],,,2<6[4:1],,{8},3,4,5,
{12}7,7,4,6,6,3,5,5,2,4,4,1,
8,8,5,6,6,1,7,7,3,5,5,2,
1,1,8,7,7,6,5,5,4,3,3,2,
{8}1^4[8:1],1q5[8:1],1v6[8:1],,,,17,,
2-8[8:1],6-2[8:1],2>8[8:3],6,,8-4[8:1],,,
3-1[8:1],7-3[8:1],3<1[8:3],7,,1-5[8:1],,,
4-2[8:1],8-4[8:1],4<2[8:3],8,,2-6[8:1],,4,
4q8[8:1]*qq3[8:1],,,,23,45,67,81,
{12}3,2,1,4,3,2,5,4,3,6,5,4,
7,6,5,8,7,6,1,8,7,2,1,8,
{8}3-6[8:1]*-5[8:1],,3,,7-2[8:1],1,2,3,
4-7[8:1]*-6[8:1],,4,,8-3[8:1],2,3,4,
5-8[8:1]*-1[8:1],,5,,
{12}8,7,6,7,6,5,
6,5,4,5,4,3,4,3,2,3,2,1,
8h[4:1],,,{24}2,3,4,51,2,3,{4}4,{24}7,6,5,48,7,6,
{4}5v4[8:1],{8}3p6[8:1],3,7^2[8:1],,{16},,,,
{8}7-1[8:1],3-7[8:1],7<1[8:3],3,,1-5[8:1],,,
6-8[8:1],2-6[8:1],6>8[8:3],2,,8-4[8:1],,,
5-7[8:1],1-5[8:1],5>7[8:3],1,,7-3[8:1],,,
{16}5,,,47,,,13,,,78,,,{8}5-1[8:1],73,
{4}5bw1[8:11],,,,,,,,
{8}3,4,6,5,,8,,2,
3,4,6,5,,8,,{16}3,4-1[4:5],5,E
