&title=クピドゥレビュー
&artist=悠木碧
&first=0.07
&des=旗立菜波
&lv_6=13+
&inote_6=(137.05)
{1},
{1}4qq8[2:1],
{8}1>4[8:1]/8<5[8:1],,,,E5,7b,2bv8[8:1],,
{4}8-4[8:1]*-2[8:1],{24},,,,,3x/5x-8[8:1],,,3x/5x,,,,2bv8[8:1],,,,,,
{4}8b-4[8:1]*-3[8:1],{24},,,,,2x/5x-8[8:1],,,2x/5x,,,,3bv1[8:1],,,,,,
{4}1bV35[24:4],7<1[4:1],{16}4h[4:1],,,,,8x,7x,6x,
{4}5xh[8:1]/3xh[8:1],2xh[8:1]/3xh[8:1],4xh[8:1]/6xh[8:1],7xh[8:1]/6xh[8:1],
{8}5/8-4[8:1],,1,,5/8-4[8:1],B6,B7,,
{8}5/8-4[8:1],,1,,5/8-4-2[24:5],6x,7x,8x,
{8}1-5[8:1],,2,,4/1-5[8:1],B6,B7,,
{8}1-5[8:1]/4,,1x/2x-5-1[4:1]*-5-8[4:1],,,,,,
{8}3q7[8:1]/7,,5,,4q1[24:4]/8,B1,E3,,
{8}5p1[8:1]/8,,6,,4q1[24:4]/8,1x,2x>4q5<7[2:1],3xh[2:1],
{2},{24}3x,,3x,,,7x,7x-5-3-1b[8:2],,,,,,
{4}4h[4:1],,3xv8[8:1]/7xv4[8:1],3x/7x,
{16}1/6h[4:1],,,,5,,,,4/2h[16:3],,,1,2,,8,,
{4}8qq6[8:1]*q4[8:1],,7x-3[8:1],7x/3x,
{16}2/4h[4:1],,,,5,,,,5/7h[16:3],,,8,7,,1,,
{8}2-6[8:1]/6,,8,8>6[4:1],,4h[8:3],,,
{4}7x-5[8:1],4x-7[8:1],8x-4[8:1],3x-8[8:1]*-1[8:1],
{4},6x-1[8:1]*-2[8:1],,4x>7[16:5],
{2}Ch[2:1],{16}1,,,3/4q5<3b[16:9],,,6h[8:5],,
{8},,,,,7b/A4/D4/E4,2b/A5/D6/E6,,
{16}34,,3h[8:1],,4,2h[8:1],,4,3h[8:1],,4>1[8:1],,5,,6x,,
{16}7,,6h[8:1],,5,7h[8:1],,5,6h[8:1],,4<7[8:1],,3,,2x,,
{16}1,,2h[8:1],,4,1h[8:1],,4,2h[8:1],,4qq4[16:3],,5,,6x,,
{8}7b,E7,B5,E6,B4,E5,{32}E1,D1f,,,,,,,
{16}24,,3,,6,5,,7,8,,7/1<6[8:1],,2,,3x,,
{16}4,,56,,3,4,,2,1,,2/8>3[8:1],,7,,6x,,
{24}5,,,56,,,7,,,46,,,7,,,3,,3,5,,5,4,,,
{24}6,,,75,,,6,,,58,,,7,,,2,,2,4,,4,3,,,
{24}7,,7,5,,5,6,,6,4,,4,5,,5,3<6[8:1],,3,4,,,C/E5f/B4/B5,,,
{8},1xb,3xbqq6<3b[32:15]/7xhb[8:6],,,,,,
{24}4x-8b[8:1],5x,6x,7x,8xV63[24:5],1x,{8}2xb,,,1V35[32:5],1,7-3b[8:1],
{8},4V28[32:5],4,6b-2b[8:1],,7b-5-3-1[32:7],8,1b/7b,
{24}2x-6[8:1],,,,,,8,,,7,,7,5,,5,6v7[8:1],,6,5v4[8:1],,5,,,,
{8},6x,5v4-6-8-2b[32:12],4x,3xh[2:1],,,,
{24}2x-6b[8:1],1x,8x,7x,6xV84[24:5],5x,{8}4xb,,,5-1[8:1],6,8x-2v5[32:6]b,
{8},4V68[32:6],4,3b-7[8:1]*-8[8:1],,3b,,1/6v1[8:1],
{8}2-5[8:1]/5,,2,7V13[32:5],,1-5[8:1]*v7[8:1]/7,,1,
{8},5xh[8:1],6xh[8:1],7xh[8:1],8xw4b[8:1],,,,
{24}2,,,43,,,2-4[8:1],,,53,,,2,,,6,,6,4,,4,5,,,
{24}3,,,24,,,3-5[8:1],,,26,,,3,,,7,,7,5,,5,6,,,
{24}1,,,52,,,8<5[8:1],,,47,,,2,,,1,,1,4,,4,3,,,
{24}6,,,75,,,3<6[8:1],,,24,,,7,,,8,,8,5,,5,6,,,
{4}2x-4[8:1]/4b,5x-2[8:1]/2b,1x-5[8:1]/5b,6x-3[8:1]*v1[8:1]/1b,
{4}6b,2x-6[8:1]/8x-4[8:1],2b/8b,5x<4[16:5],
{2}5b/7xh[2:1],{16}8,,,6/5-8-3-6b[16:7],,,A5/E6f/B6/3hb[8:5],,
{8},,,,,7b/A4/D4/E4,2bqq7[8:6]/A5/D6/E6,,
{4}5,5,5,5hb[4:1],
{24}4b,,4,5,,5,3,,3,4,,4,2,,2,,5-1[8:1],4,,,,{48}5xb/7xb-3V15[8:5]*v8-6b[8:5],Cf,,,
