&title=Better Graphic Animation
&artist=ルゼ
&first=0.7
&des=mai-cube star
&lv_5=14
&inote_5=(180)
{16}
5h[8:1],,,,5h[8:1],,,,5h[8:1],,,3,5h[8:1],,3,,
5h[8:1],,3,,4h[8:1],,6,,5,4,6,3,5h[8:1],,8h,,
5,,1,,3/7,,,,8/1,,8/1,8/1,2/7,,,,
1h[8:1],,2,,8h[8:1],,7,,2,8,3,7,2,8,3,7,
1h[8:1],,7,,1h[8:1],,7,,1h[8:1],,7,7,1h[8:1],,7,,
4/2,,3,,7/5,,6,,8,2,6,4,2/7,,,,
4,,4,,7/1,,,,5,,5,,2/8h[4:3],,,,3b,,,,2b,,,,1bp4[8:1]*q6[8:1],,,,1b,,,,
{16}
8/7,,6,,1/8,,7,,1/2,,7,8,7,,6,,
4/6,,5,,5/3,,4,,3,4,3,4,2h,,2h,,
6/5,,7,,5/4,,3,,3/4,,5,4,5,,6,,
3h[8:1],,4,,6h[8:1],,5,,4,5,4,5,3,6,4,5,
3/6,,2,,3/6,,7,,3/6,,4,5,3/6,,3/6,,
5/3,,4,,4/6,,5,,6,5,6,5,6h,,6h,,
7/3,,5,,7/3,,,,2/6,,4,,2/6,,,,
1/8,,,,8/6,,3/4,,4/7,,1/2,,4/6,,,,
7b,1,7,1,7,1,7,1,7,1,7,1,7,1,8b,2,8,2,8,2,8,2,8,2,8,2,8,2,
1b,2,8,1,7b,8,7,8,7,8,7,8,7,8,7,8,7,8,6b,3,6,3,6,3,4b/5b,,,,2b/3b,,,,8b/1b,,,,
2b,5,2,5,2,5,2,5,2,5,2,5,2,5,4b,7,4,7,4,7,4,7,4,7,4,7,4,7,4,7,4,7,
3b,4,2,5,4,6,5b,7,1,8,2,7,1b,8,1,8,3b,6,3,6,3,6,3,6,1b,8,3,6,4,5,3,6,
2,2,,6,6,,4,4,,8,8,,1/2,,3/8,,
7,7,,3,3,,5,5,,1,1,,8/7,,6/1,,
2,2,,4,4,,6,6,,8,8,,7/8,,1/6,,
6,5,6,5,6,,6,5,,,3/4,,1/2,,8/7,,
7,5,,5,4,,4,2,,2,1,,6/5,,4/7,,
2,4,,4,5,,5,7,,7,8,,3/4,,5/2,,
7,5,,5,3,,3,1,,1,7,,6/5,,4/7,,
1,8,1,8,1,,8,1,,,1b/8b,1b/8b,1b/8b,,,,
B7/B6/C/B2/B3,,,,,,,,,,,,,,,,,,,,,,,,,,,,,,,,
3,7,3,7,3,7,3,7,2,8,2,8,2,8,2,8,1,1,1,1,1,1,1,1,1,1,1,1,1b,,,,
{8}
6h[8:3],5,4,5,4h[8:3],5,6,5,
6h[8:3],5,4,5,4h[8:3],5,6,5,
7h[8:3],8,1,8,2h[8:3],8,7,8,
6h[8:3],5,4,3,3h[8:3],6,5,4,
4/5,6,4/5,3,4/7,3/8,1/2,7/8,1/6,2/5,3q7[8:1]/4p8[8:1],,,,,,
1h[8:7],,,,,,,2h[8:7],,,,,,,3,,4h[8:7],,,,,,,5h[8:3],,,
1q6[8:1],,1p4[8:1],,1,,
2h[8:7],,,,,,,
4h[8:9],,,,,,,,,
3h[8:3],,,7h[8:3],,,5h[8:2],,8p3[8:1],,,,8q5[8:1],,,,
1h[8:7],8,,8,,8,,7h[8:7],,8,,8,,8,2h[8:2],3,4h[8:7],3,,3,,3,,2h[8:2],1,4h[8:2],
1,5h[8:2],8,6h[8:3],8,,
2h[8:7],1,,1,,1,,
8h[8:9],,1,,1,,1,,1,
3h[8:3],5,,7h[8:3],,5,4h[8:2],,8bq5[8:1]*p3[8:1],,,,1bp4[8:1]*q6[8:1],,,,
6/5,7,6/5,4,6/5,7,6/5,4,3/4,2,3/4,5,7/8,7/8,,6,
3/4,2,3/4,5,3/4,2,3/4,5,3/4,2,3/4,5,6/5,7,1/8,2,
3/7,6,2/5,3,3/7,6,5/1,
{8}2b/4b,,7b/6b,,8b/7b,1b/2b,,
{16}
3,7,3,7,1,,7,5,6,,2,4,3,,7,8,7,,2,1,2,7,3,7,3,7,3,7,2,8,2,8,
2,8,2,8,1b,1,1,1,
1,1,1,1,1,1,1,1,
1,1,1,1,1b,1,1,1,
1,1,1,1,1,1,1,1,
1,1,1,1,1b,1,1,1,
1,1,1,1,1,1,1,1,
1,1,1,1,1b,1,1,1,
1,1,1,1,1,1,1,1,
1,1,1,1,1b,1,1,1,
1,1,1,1,1b,1,1,1,
1,1,1,1,1b,1,1,1,
1b,1,1,1,1b,1,1,1,
1b,1,1,1,1b,1b,1b,1b,
1b,1b,1b,1b,1b,1b,1b,1b,
1b,1b,1b,1b,1b,1b,1b,1b,
1bq4[8:3]*p6[8:3],1b,1b,1b,1b,
