&title=潜在的なアイ
&artist=13.3g
&first=0.615
&des=Latent I
&lv_5=13
&inote_5=(137){8},,
4xh[8:5],,,,,8-5[8:1],,2h[2:1],
,,,4qq4[4:1]b*pp4[4:1]b,,,,,
5xh[8:5],,,,,8-5[8:1],,2h[2:1],
,,,4h[4:1],,{16}1x,1x,{8}C,,
3x^8[4:1]/5x,,5,,5,E2,5,E4,
5,,5,1-4[4:1],5,,5,,
6x/5x-1[4:1],,6,,6,E3,7,E5,
8bw4[8:1],,,,1bw5[8:1]b,,,,{16}
3,4,,4,2,,15,,6,5,,5,7,,84,,
3,4,,4,2,,15,,6,5,,8,1,,27,,
3,4,,4,2,,17,,6,5,,5,7,,82,,
7x^4[8:1]/3x,,,,7x/1x-5[8:1],,,,8x^5[8:1]b*-4[8:1]/1x,,,,8bx,,,,
3,4,,45,,6,5,7,1-5-2[4:1],,2,,,,7-4-6[4:1],,
8,,,,3V51[4:1],,2,,,,8,,8,,,,
7xh[16:3]/3,,5,,7xh[16:3]/2,,5,,6xh[4:1]/1,,5,,3,,7xh[4:1]/1,,
5,,3,,1^4[8:1],8,1^6[8:1],8,1x-5-1[4:1]b,,1x,,1bx,,,,
E8/B7,,3,5,3,5,3,5,2h[4:1],,B8,,4h[4:1],,B1,,
3h[4:1],,B8,,5h[4:1],,B1,,4,6,4,6,5h[4:1],,B8,,
6h[4:1],,B1,,4h[4:1],,B8,,5h[8:1],,3,4,3,4,3,4,
2h[4:1],,B8,,6pp2[8:3]b,3,6,3,6b^5-3[8:1],,,,,,,,
B8/A8/B4/A4,,,2xh[16:9]/6xh[16:9],,,,,,,,,,,,,
B1/A1/B5/A5,,,7xh[16:9]/3xh[16:7],,,,,,,,,E1f/B1/B8/A1/A8/D1,,,,
75,,6,,54,,3,,24,,3,,54,,6,,
75,,6,,24,,3,,4x-1[8:1]/5x-8[8:1],,,,4x/5x,,,,
7v8^1[4:1]b,,,,1-4-6^7[16:5]b,,,,,,,,,,,,
2v1^8[4:1]b,,,,8-5-3^2[16:5]b,,,,,,,,,,,,
71,,6b,,54,,3,,28,,3,,54,,6,,
7-5[8:1]/3,,8,,2-6[8:1]b/7,,1b,,2b/8h[8:4],,E5,,E4,,E3,,
1b-6[8:1],,,,1^4[8:1]/7qq5[8:1],,,,17,,,,6-1[8:1],,2v5[8:1],,
6,,2,,8h[8:3],,{32}E5,E4,E3,E2,E1,E8,E7,E6,{16}E5,,,,12,,
3h[16:3]/8,,4,4,,,78,,6h[16:3]/1,,5,5,,E8/B8/B7,,,
3-8[8:1],,4,,6-4[8:1]/3,,7,,1bw5[8:1]b/6,,2b,,1b,,,,
3v2[8:1],,,,4-7[8:1]/3-8[8:1],,,,34,,,,1-5[8:1],,6-1[8:1],,
1,,6,,4h[8:3],,{32}E8,E7,E6,E5,E4,E3,E2,E1,{16}E8,,,,6b/5b-2V48[8:3]b,,
,,58,,7,,6,,5-7[8:1]*-1[8:1],,,,5,,,,
2x/A6/E6f/D6,,2,,3x/A7/D7/E7f,,3,,4x/A8/D8/E8f,,4,,E5/B4/B5/B3/B6/E3/E7/Cf/B2/B7,,,,
1v6[8:1]/8,,2,5,1,,8,,57,,4,5h[16:3],,,B1,,
3v8[8:1]/6,,4,5,3,,7,,16,,5,4h[16:3],,,B8,,
36,,2,4h[16:3],,,5-1[8:1],,6,,E8/B7,,E8/B7,,2^5[8:1],,
5,,6xp8[8:1],6xh[16:3],,,,,7^4[8:1]*^2[8:1],,,,7,,,,
3bv6[8:1],,,,7v4[8:1]/3^2-8[8:1],,,,37,,,,5-8[8:1],,2-6[8:1],,
5,,2,,7h[8:3],,{32}E5,E4,E3,E2,E1,E8,E7,E6,{16}E5,,8^5[8:1],,1b,,
2-6[8:1]/8,,3,,42,,5h[4:1],,7x-3[8:1],8x,1x-5[8:1]b,,7,,1,,
,,,,,,,,,,,,,,,,
7p3[8:1],5,,5,7,,1,,2q6[8:1],4,,4,2,,8,,
7-3[8:1],,,,7^6-4[8:1]/1-5[8:1],,,,1^4[8:1]/7,,,,1/6,,8h[8:5],,{32}
E5,E4,E3,E2,E1,E8,E7,E6,E5,E4,E3,E2,E1,E8,E7,E6,4x,3x,2x,1x,8x,7x,6x,5x,4x,3x,2x,1x,8x,7x,6x,5x,{16}
8x^5[8:1]/4x,,,,8x^3[8:1]/4x,,,,8x/4xv1[8:1]*v7[8:1]b,,,,4bx,,,,
B2,B6,B4,8h[16:5],,,,,3h[16:3],,6pp3^4-6^1[32:25],6,,,Ch[8:7],,
,,,,,,,,,,,,,,8b/D3f/B3/E3/B2,,{1}
,
E
