&title=ウバワレタモノ
&artist=sasalasa
&first=0
&des=AnD
&lv_5=13
&inote_5=(112)
{1},
{16}
A6,A5,A4,A3,,,,,,,A6,A5,A4,A3,,,,,,,D7,D6,D5,D4,,,,,,,D6,D5,D4,D3,,,,,,,
6<1[4:3],6,5,4,,,,,,,5,5,4,3,,,,,,,5<1[4:3],5,4,3,,,,,,,
4,4,3,2,,,,,,,1/7,,6>4[8:1],5,,,,,,,3,4,3,2>4[8:1],,,,,,,
5,4,5,6<8[8:1],,,,,,,2,1,2,3<5[8:1],,,,,,,
6<3[4:4],,5,5,,,,,,,4h[16:1],,4,4,,,,,,,5<4[4:4],,4,4,,,,,,,5h[16:1],,5,5,,,,,,,
7,6,2,3,6,5,3,4,45,45,3h[2:1]/6b,,,,,,,,5h[2:1],,2h[2:1],,,,,,,,7h[8:3],,
1>4[4:1],,,,,,7,,8h[16:5],,4h[16:3],,,,,26,2/6,,2/6,,1h[16:3]/5h[16:3],,,,,1/5,1/5,,
2/6,,7h[16:3]/4h[16:3],,,,,74,47,,2/6,,3^6[16:3]/5h[16:3],,,,,,7,,7,,
8^3[8:1]/7,,,1^6[8:1],,,,,,,A4f,,,3h[16:3]/5,,7,6,,16,,2/8h[16:5],,,6,,4,3,,
3/1,,7/2h[4:1],,,4,4,3,5<8[8:1],,4,,2,,1,1>4[12:1],,1<6[8:1],8,,,,5,,,2/4h[16:3],,
1,1,,6/7,,6/5h[16:3],,,3,,15,8b/4b,,2/6,,6^3[16:3]/4h[16:3],,,,,,2,,2,,
1>4[8:1]/2,,,8<5[8:1],,,6,,3,,1,1,8,7,,4,5,,2/7,
,3/6,{24}5,4,6,{16}5,5,7,6,4,3,5/2,25,,8h[16:3]/1<6[8:1],,,4,1b/5b,,
3,2,7,6,3,4,7,8,5,4/6h[16:2],,5,5/6,,5/7,6,,8/2h[16:2],,1,2/1,,
3/6,7,8,1,2,3^6[12:1]/6^3[12:1],,2<5[8:14]/7>4[8:14],,{64}6b/3b,D5f,,,{16},,,
{1},{2},{16},,,,,
4<7[8:1]/7h[8:1],,,1h[8:1],,,3h[8:1],,8,,
5<8[8:1]/8h[8:1],,,2h[8:1],,,4h[8:1],,1,,
6<1[8:1]/1h[8:1],,,3h[8:1],,,5h[8:1],,2,,
7>2[8:1]/2h[8:1],,,4h[8:1],,,6h[8:1],,1b,,
5>2[8:1]/2h[8:1],,,8h[8:1],,,6h[8:1],,1,,
4>1[8:1]/1h[8:1],,,7h[8:1],,,5h[8:1],,8,,
7<5[16:1],,4<7[16:1],,1,,3,3,2<8[16:1],,7>2[16:1],,5,,
,,4/3,,8/7,,
1h[8:1]/6<1[8:1],,,3h[8:1],6,,5h[8:1],,2,,
8h[8:1]/5<8[8:1],,,2h[8:1],5,,4h[8:1],,1,,
7h[8:1]/4<7[8:1],,,1h[8:1],4,,3h[8:1],,8,,
8h[8:1]/3<6[8:1],,,2h[8:1],3,,4h[8:1],,7,,
8h[8:1]/3>8[8:1],,,6h[8:1],3,,4h[8:1],,7,,
1h[8:1]/4>1[8:1],,,7h[8:1],4,,5h[8:1],,8b,,
7<4[16:1],,4<7[16:1],,2,,8,8,1>4[16:1],,4>1[16:1],,7,,,,
7b/8b,,5/6,,
3>8[12:1]/4h[8:1],,,1,3,,4h[8:1],,6,,
1h[8:1]/7>2[12:1],,,5,7,,8,1,2/7,,
1<6[12:1]/3h[8:1],,,7,1,,8h[8:1],,4,,
5<8[12:1]/6h[8:1],,,2,5,,4h[8:1],,8b,,
1^4[12:1]/3h[8:1],,,6,1,,8h[8:1],,5,,
5h[8:1]/3^6[12:1],,,1,3,,4,5,6/3,,
6/5>2[16:1],,1>4[16:1],,8,,7,7,6<1[16:1],,2<7[16:1],,5,,,,
6b/5b,,3b/2b,,
5>2[12:1],4,,8<5[12:1],5,,1,8,2,2,4>1[12:1],3,,7<4[12:1],4,,8,7,1,1,
3>8[12:1],2,,6>3[12:1],3,,7,6,8,8,2>5[12:1],1,,7>2[12:1],2,,6,7,5,5,
4<7[12:1],6,,1>4[12:1],4,,8,1,7,7,5<8[12:1],6,,2>5[12:1],5,,1,2,
8b<8[4:1],,4>8[8:1]*<8[8:1],,8>8b[4:1],,,,,,,,,,
8,8,8,8,4>5[8:11]/8<5b[16:1],48,48,4/8,8b,,,,,,,,,,,,4>1[8:3],,,,,,,,,,,,D1f,,
