&title=Mr.Showtime
&artist=ワンダーランズ×ショウタイム
&first=0
&des=WWJASD
&des_5=
&lv_5=14
&inote_5=(218){48},,,,,,,,,,,{4},,,3h[4:1],
{12}6,,6,{4}3h[4:1],{16}5,,,6x/2x,
,,,5,{48},4,,,,,,,,{16}4,{48},5,,,,,,,,{16}5,,,,3x/7x,
,,,5,{48},4,,,,,,,,{16}4,{48},5,,,,,,,,{16}5,,,,2x/7x,
,,,5,{48},4,,,,,,,,{16}4,{48},5,,,,,,,,{16}5h[4:1],,,,B1/B2,
,,,B7/B4,,,,E2/E6,,,,E8/E4/B7/B8/B3/B4,,,,1x/8x,
,,,7,{48},5,,,,,,,,{16}6,{48},4,,,,,,,,{16}3,,,,8x/1x,
,,,2,{48},4,,,,,,,,{16}3,{48},5,,,,,,,,{16}6,,,,2x/7x,
,,,8,{48},1,,,,,,,,{16}1,{48},8,,,,,,,,{16}8,,,,8-5[8:1]/1-4[8:1],
{4},,{48},2h[4:1],,,,,,,,,,,,6,,,,,,,,,,,,4/5-7[8:1],
,,,,,,,,,,,3,,,,,,,,,,,,4-2[8:1],,,,,,,,,,,,6h[4:1],,,,,,,,,,,,1,
,,,,,,,{16}1,{48},7,,,,,,,,{16}7,{48},3,,,,,,,,{16}3,{48},5,,,,,,,,{16}5,
{48},1-3[8:1],,,,,,,,,,,,7,,,,,,,,,,,,8-6[8:1],,,,,,,,,,,,2h[4:1],,,,,,,,,,,,5,
,,,,,,,{16}5,{48},3,,,,,,,,{16}3,{48},7,,,,,,,,{16}7,{48},1,,,,,,,,{16}1bpp3[8:1]/5bpp7[8:1],
{4},,{48},2-5[8:1],,,,,,,,,,,,6,,,,,,,,,,,,8-4[8:1],
,,,,,,,{16}3,{48},3h[3:2],,,,,,,,{16}5x,,,,6x,,,,7xh[3:1],
{48},,,,,,,,,,,,,5,,,,,,,,{16}6,{48},5,,,,,,,,{16}4,{48},5,,,,,,,,{16}6v1[8:1],
,,,2x,,,,2xq4[4:1],{4},,{48},8-6[8:1],
{4},{16},,,{24},{48}1-5[8:1]*-4[8:1],{4},{16},,,{24},{48}3,
,,,,,,,{16}3>8[48:11]*p7[48:11],{48},4,{4},,{16},,,{24},{48}1-3[8:1],
{4},{16},,,{24},{48}8-4[8:1]*-5[8:1],{4},{16},,,{24},{48}6,
,,,,,,,{16}6<1[48:11]*q2[48:11],{48},5,{4},,{16},,,{24},{48}3-1[8:1],
,,,,,,,{16}5,{48},3,,,,,,,,,,,,6-8[8:1],,,,,,,,{16}4,{48},6,,,,,,,,,,,,4,
,,,,,,,{16}5,{48},4,,,,,,,,{16}5h[3:1],{48},,,,,,,,,,,,,2,,,,,,,,{16}5,
{48},2,,,,,,,,{16}6,{48},2,,,,,,,,{16}5,{48},2,,,,,,,,{16}6,{48},2,,,,,,,,{16}5pp4[2:1],
{48},2,,,,,,,,{16}E3,E2,E1,{4},,{16},,{48},1-7[8:1],
{4},{16},,,{24},{48}6-2[8:1]*-3[8:1],{4},{16},,,{24},{48}1,
,,,,,,,{16}1>3[48:7],{48},8,{4},{16},,,{24},{48}6,,,,,,,,,,,,7,
,,,,,,,,,,,8p4[8:1]/4p8[8:1],,,,,,,,,,,,4/8,,,,,,,,,,,,8x>2[8:1]/4x<6[8:1],,,,,,,,,,,,8x<8[3:2],
,,,,,,,,,,,,,,,,,,,{16}4xh[2:1],{4},,{48},1-5[6:1],
,,,,,,,,,,,1h[6:1],{4},{16},,,{24},{48}8-4[6:1],,,,,,,,,,,,8h[6:1],
,,,,,,,,,,,,,,,,,,,{16}1,{48},8,,,,,,,,{16}1,{48},8,,,,,,,,{16}1h[3:1],
{48},,,,,,,,,,,,,8,,,,2,,,,{16}6,{48},4,,,,,,,,{16}7/3,,,,5h[2:1]/1-6-3-8-4[8:5],
{1},{48},7,
,6,,5qq7[12:17],{4},,{16},,{48},1,{4},{16},,,{24},{48}2,
{4},{16},,,{24},{48}3,,,,,,,,,,,,4p8[2:1],
{4},,,{16},,,{24},{48}6q3[2:1],
{4},,,{16},,,{24},{48}2h[4:1],
,,,,,,,,,,,6,,,,,,,,,,,,2h[4:1],,,,,,,,,,,,6,,,,,,,,,,,,1/8,
,,,,,,,,,,,7/2,,,,,,,,,,,,6/3,,,,,,,,,,,,5/4,,,,,,,,,,,,6V48[2:1]/3V51[2:1],
{4},,,{16},,,{24},{48}7/2,
,,,,,,,{16}6-1[8:1]/3-8[8:1],{4},,{48},7x/2x,,,,,,,,,,,,6h[4:1],
,,,,,,,,,,,1,,,,,,,,,,,,6h[4:1],,,,,,,,,,,,1,,,,,,,,,,,,3h[4:1],
,,,,,,,,,,,8,,,,,,,,,,,,3h[4:1],,,,,,,,,,,,8,,,,,,,,,,,,E6/E2,
,,,,,,,,,,,E8/E4,,,,,,,,,,,,6x/2x,,,,,,,,,,,,7xv6[8:1]/3xv2[8:1],{4},,{16},,,{24},{48}6-3[4:1],
,,,,,,,,,,,3<6[4:1],,,,,,,,,,,,1,
,,,,,,,,,,,1,,,,,,,,,,,,2h[6:1],,,,,,,,{16}5,{48},2,,,,,,,,,,,,7h[6:1],
,,,,,,,{16}4,{48},7,,,,,,,,,,,,3h[6:1],,,,,,,,{16}5,{48},3,,,,,,,,{16}5,
{48},4,,,,,,,,{16}6,{48},3,,,,,,,,{16}7,{48},2,,,,,,,,{16}8-3[8:1],,,,2,
{48},,,,,,,,,,,,,1,{96},8,,,7,,,6,,,{48}5,{96},4,,,3,,,2,,,{48}1,,,,,,,,,,,,,,,,,,,,{16}1b/6b,
,,,7,{48},8,,,,,,,,{16}5-1[48:7],{48},4,,,,,,,,{16}5,{48},3,,,,,,,,{16}8x/2x,
,,,2,{48},1,,,,,,,,{16}4-8[8:1],{48},5,,,,,,,,{16}4,{48},6,,,,,,,,{16}1x/7x,
,,,3,{48},4,,,,3,,,,{16}6,{48},5,,,,6,,,,{16}4>1[8:1],{48},5,,,,4,,,,{16}5b,
{48},,,,,,,,,,,,,8x/7xV51[4:1],,,,,,,,,,,,4,,,,,,,,{16}2,,,,3,
,,,5,{48},4,,,,,,,,{16}6,{48},5>2[8:1],,,,,,,,{16}7,{48},5,,,,,,,,{16}8-4[8:1],
,,,8,{48},1,,,,,,,,,,,,2h[4:1]/3>5[24:7],,,,,,,,,,,,,,,,,,,,{16}4>6b[2:1],
,,,,,,,,,,,,,,,5x/B2/B3,
,,,4x/E8/B7,,,,6x/E2/B2/B1,{48},,,,,,,,,,{24}3x/E8/B7/B8,{48},,,,,,,,,{16}8bx/3bx,
,,,2,{48},1,,,,,,,,{16}4-8[48:7],{48},5,,,,,,,,{16}4,{48},6,,,,,,,,{16}1x/7x,
,,,7,{48},8,,,,,,,,{16}5-1[8:1],{48},4,,,,,,,,{16}5,{48},3,,,,,,,,{16}8x/2x,
,,,6,{48},5,,,,6,,,,{16}3,{48},4,,,,3,,,,{16}5<8[8:1],{48},4,,,,5,,,,{16}4bqq5[2:1],
{4},,,{48},7,,,,,,,,{16}7,
{48},,,,,,,,,,{24}8,{48},1-6[8:1],,,,,,,,,,,,3/1,,,,,,,,,,,,2,,,,,,,,{16}2,
,,,1,{48},8-3b[8:1],,,,,,,,,,,,8/6h[12:5],,,,,,,,,,,,,,,,,,,,{16}4,
,,,6,{48},3,,,,,,,,{16}5,{48},2,,,,,,,,{16}4-7[8:1]*-1[8:1],{48},2,,,,,,,,{16}4bpp8[2:1]*qq8[2:1],
,,,,,,,,,,,,,,,7/2,
,,,5,{48},4,,,,,,,,,,,,1/8,,,,,,,,{16}6/3,,,,5/2,
,,,4/7,{48},,,,,,,,,5/3,,2,,1,,8,,7,,6,,5,,4,,3,,,,,,,,{16}8bV61V72b[6:5],
{1},{48},3V14V25[6:5],
{4},,,{16},,,{24},{48}7V15-8V27[12:17]*V15-8V27[12:17],
{1},,{24}2h[48:11],
{48},,,,,,,,,6,,,,,,,,,,,,2h[4:1],,,,,,,,,,,,6,,,,,,,,,,,,1h[4:1],
,,,,,,,,,,,5,,,,,,,,,,,,1h[4:1],,,,,,,,,,,,5,,,,,,,,,,,,4/7,
,,,,,,,,,,,7/4,,,,,,,,,,,,6/3,,,,,,,,,,,,3/6,,,,,,,{12}1-5[8:1],
,,{6}1<6[8:1]*>4[8:1],{12},1,{48},,,,,,,,,{16}5x,{48},1x-5[8:1],{4},{16},,,{24},{48}Cf/B1/B8/D1/B2/B7/E1/D6/D4/A2/A7/B6/B3/B5/B4,
{4},{16},,,{24},{48}1h[4:1],,,,,,,,,,,,7,
,,,,,,,,,,,1h[4:1],,,,,,,,,,,,6,,,,,,,,,,,,1h[4:1],,,,,,,,,,,,5,
,,,,,,,,,,,1h[4:1],,,,,,,,,,,,5h[6:1],,,,,,,,{16}2h[6:1],{48},,,,,7,,,,,,,,3h[6:1],
,,,,,,,{16}8h[6:1],{48},,,,,4,,,,,,,,7h[6:1],,,,,,,,{16}1h[6:1],{48},,,,,4,,,,,,,,2h[6:1],
,,,,,,,{16}5,,,,3/7,{48},,,,,,,,,,,,,8h[6:1],,,,,,,,{16}4,
,,,6/2,,,,6-4[8:1]/2-4[8:1],{4},,{48},3x/5x,
,,,,,,,{16}3,{48},4,,,,,,,,{16}5,{48},4,,,,,,,,{16}3,{48},4,,,,,,,,{16}5,
,,,1/7,,,,6/2,,,,3/5,,,,5,
{48},4,,,,,,,,{16}6/3,,,,5,{48},4,,,,,,,,{16}6,{48},3,,,,,,,,{16}7pp4[48:23]/2qq5[48:23],
,,,,,,,,,,,,,,,2p4[2:1],
{4},,{48},5x,,,,,,,,,,,,,,,,,,,,{16}6p8[2:1],
{4},,{48},2x,,,,,,,,,,,,,,,,,,,,{16}1-5[2:1],
{4},,{48},8x,,,,,,,,,,,,,,,,,,,,{16}7-3[2:1],
{4},,{48},1x,,,,,,,,,,,,,,,,,,,,{16}2V84[2:1],
{4},,{48},5x,,,,,,,,,,,,,,,,,,,,{16}7V15[2:1],
{4},,{48},4x,,,,,,,,,,,,,,,,,,,,{16}4-8[2:1],
,,,,,,,,,,,,,,,6x/B2/B1,
,,,3x/B8/B7,,,,8x/C,,,,1x/C,,,,5/2,
,,,5,{48},4-8[8:1],,,,,,,,{16}3,{48},4,,,,,,,,,,,,,,,,,,,,{16}7/4,
,,,4,{48},5-1[8:1],,,,,,,,{16}6,{48},5,,,,,,,,,,,,,,,,,,,,{16}7/2,
,,,8-4[8:1],{48},4,,,,,,,,{16}2-6[8:1],,,,5<4[2:1],{4},,,{48},1,
,,,,,,,,,,,2h[6:1],,,,,,,,{16}6h[3:1],
{48},,,,,,,,,,,,,4,,,,,,,,,,,,4,,,,,,,,{16}5,{48},4,,,,,,,,{16}5,
{48},3,,,,,,,,{16}5,{48},2,,,,,,,,{16}5,{48},1-6b[8:1],,,,,,,,,,,,1/5,,,,,,,,{16}5h[3:1],
{48},,,,,,,,,,,,,7,{96},8,,,1,,,2,,,{48}3,{96},4,,,5,,,6,,,{48}7,,,,,,,,,,,,,,,,,,,,{16}8b/2b-4[8:1],
,,,2-8[8:1],{48},7,,,,,,,,{16}2,{48},6,,,,,,,,{16}5x,{48},5x,,,,,,,,{16}1b/7b-5[8:1],
,,,7-1[8:1],{48},2,,,,,,,,{16}7,{48},3,,,,,,,,{16}4x,{48},4x,,,,,,,,1,,8,
,7-5[8:1],,,,,,,,,,,,7-3[8:1],,,,,,,,{16}1,{48},7,,,,,,,,{16}2-5[8:1],,,,2/E7,
B7,B8,{48},,,,,,,1x/2xV48[4:1],,,,,,,,,,,,5,,,,,,,,{16}7,,,,6,
,,,4,{48},5,,,,,,,,{16}3,{48},4<7[8:1],,,,,,,,{16}2,{48},4,,,,,,,,{16}1-5[8:1],
,,,1,{48},8,,,,,,,,,,,,7h[4:1]/6<4[24:7],,,,,,,,,,,,,,,,,,,,{16}5<3b[2:1],
,,,,,,,,,,,,,,,4x/B7/B6,
,,,5x/E2/B2,,,,3x/E8/B7/B8,{48},,,,,,,,,,{24}6x/E2/B2/B1,{48},,,,,,,,,{16}1bx/7bx-5[8:1],
,,,7-1[8:1],{48},2,,,,,,,,{16}7,{48},3,,,,,,,,{16}4x,{48},4x,,,,,,,,{16}8b/2b-4[8:1],
,,,2-8[8:1],{48},7,,,,,,,,{16}2,{48},6,,,,,,,,{16}5x,{48},5x,,,,,,,,8,,1,
,2-4[8:1],,,,,,,,,,,,2-6[8:1],,,,,,,,{16}8,{48},2,,,,,,,,{16}7-4[8:1],,,,E3/7bpp6b[2:1],
B2,B1f,{4},,{16},,{48},2h[6:1],,,,,,,,{16}1,
{48},,,,,,,,,,,,,8-3[8:1],,,,,,,,,,,,7/8,,,,,,,,,,,,7h[6:1],,,,,,,,{16}8,
{48},,,,,,,,,,,,,1-6[8:1],,,,,,,,,,,,1/2,,,,,,,,,,,,,,,,,,,,{16}2/7,
,,,5,{48},4,,,,,,,,{16}5,{48},4,,,,,,,,{16}5h[48:13],{48},4h[16:3],{96},,,,,,,,,,,,,,,,,{32}3x/6x,
2x/7x,8h[16:7]/1h[16:7],,,,,,,,,,,,,,,,B7`B2,B6`B3,E6f`E4f,,,,,,,,,,,{16}8h[3:1],
{48},,,,,,,,,,,,,,{24}2h[48:11],{48},,,,,,,,,6,,,,,,,,{16}1,,,,7,
{48},5,,,,,,,,{16}6,{48},4,,,,,,,,{16}5,{48},3,,,,,,,,{16}4,{48},2,,,,,,,,{16}8h[4:1],
,,,2,{48},8,,,,,,,,,,,,1h[6:1],,,,,,,,{16}8,{32},,,,,,7v8[16:3]/2v1[16:3],E7/E3,
B6/B3,B5f/B4f,{4},,{16},,6,{48},4,,,,,,,,{16}8-4[16:1],
,,,8,{48},1,,,,,,,,{16}2,{48},4,,,,3,,,,{16}7,{48}5,,,,,6,,,,{16}2b,
{48},,,,,,,,,,{24}6b,{48},,,,,,,,,{16}7b/3b,,,,4b/8b<5[8:1],{48},,,,,,,,,8b/A4,,A3,
,A2,,{16}A1f,
E
