&title=happily ever after
&artist=中川翔子
&first=0
&des=N
&lv_5=13+
&inote_5=(180)
{1},
{8}3/5,2v4[8:1],,,,,46,7-4[8:1],
{8},2v4[8:1],,,,,{16}6,5,7-4[8:1],,
{8},2v4[8:1],{4},,{8}54,3/6,
{16},,3,4,2,,6,4,8-4[8:1],,1,,8b/2b,,,,
{8}3-5[8:1],,6,6,7-4[8:1],,4,3-1[8:1],
{8},4-8[8:1],,2h[8:3],,7,7,,
{8}6-4[8:1],,3,3,2-6[8:1],,6,7-5[8:1],
{8},4-8[8:1],,6h[8:3],,1,1V36[8:2],,
{8}7,7,,5h[8:2]/8,,6,
{8},4h[8:2]/1,,3-8[8:1],,8,,26,35,,
{8}82,82,{4}8h[8:10]/2pp5[8:10],,,{1},
{4}8qq4[8:11],5pp4[8:9],,,,,,{16},,3,4,
{8}2v8[8:1],,5-8[8:1],,1,2,3-5[8:1],,
{8}7v1[8:1],,4-1[8:1],,8,7,6-4[8:1],,
{8}2,2,3h[8:5]/5,,5,,7,7,
{8}4,5,5,{16}3,4,2,,6,5,7,,4,5,
{8}3qq1[16:3],,7qq5[16:3],,,,2,3,
{8}4,5,5,{16}3,4,2,,6,5,7,,4,5,
{8}3^6[8:1],,8-5[8:1],,5,4,3^8[8:1],,
{8}6^3[8:1],,1-4[8:1],,4,5,6-1[8:1],,
{8}4-1[8:1],,8,,6q3[8:1]/2,53,4,,
{8}1,24,6,57,{16}4,6,4,5,{8}3-6[8:1],,
{8}31,,8V27[4:1],,8/5h[2:1],,,,
{8}6,,4V63[4:1],,4/2h[2:1],,,,
{8}3,,1V38[4:1],,1/6h[2:1],,,,
{8}7,,5V74[4:1],,5/3h[2:1],,,,
{8}4,4,2V48[4:1],1,{4}2/7h[2:1],,
{8}8,8,6V84[4:1],5,{4}3h[2:1]/6,,
{8}4,4,2V48[4:1],1,{4}2/8-6[8:1],,
{8}5,5,4q8[8:1],3,42,{16}1,2,3,4,5,,
{8}7-5[8:1],5,7,4,3-5[8:1],5,3,6,
{8}7-4[8:1],4,7,2,1-4[8:1],4,1,7,
{8}8^5[8:1],5,8,3,2^5[8:1],5,2,6,
{8}7p3[8:1],5,7,2,1q5[8:1],3,1,6,
{8}8-4[8:1],4-8[8:1],8,3,1-5[8:1],5-1[8:1],1,,
{8}6bqq4[8:1],3bpp5[8:1],,,,{16}6,5,7-3[8:1],,3,,
{8}7/1-6[8:1],,14,5-8[8:1],,53,2-6[8:1],1,
{8}2/8-3[8:1],,85,4-1[8:1],,46,7-3[8:1],8,
{8}7/1^4[8:1]*^6[8:1],,1-5[8:1],,15,,6,5,
{8}48,3,4,1>6[8:2]/5,,6,7-4[8:1]*-3[8:1],,
{8}7,,5,4-8[8:1]/6,,3,2v4[8:1]*p6[8:1],,
{8}2,,5,6-2[8:1]/4,,7,8-4[8:1],,
{8}84,3,52,1-5[8:1]/6-1[8:1],,6/1,,{16}5,8,
{16}4,7,3,6,2,5,1b-5[8:1]*-4[8:1],,,,,,,,6,,
{8}7/5^2[8:1],,53,1v4[8:1]*-6[8:1],8,1,,3,
{8}4^7[8:1]/2,,46,8v5[8:1]*-3[8:1],1,8,,6,
{8}7/5-2[8:1],,5/3-8[8:1],,13,,7,8,
{8}16,2,1,38,64,2,53,7,
{8}1-5[8:1],8-6[8:1],1,8^3[8:1],,8^5[8:1],,8^3[8:1],
{8},8,,{16}8,7,6-3[8:1],,3,,1b/6b,,,,
{8}2-6[8:1],8-4[8:1],2,8^3[8:1],,5/8^5[8:1],,3/8b^3[8:1],
{8},8b/5,,{32}73,6,5,4,3,2,1,8,7,6,5,4,3,2,1,8,3b<1[8:11]/7b<1[8:11],,,,
{1},
{16},,,,,,,,,,,,1,,8,,
{8}7-3[8:1]/5,,37,2,1-5[8:1]/4,,61,7,
{8}84,3,42,6,5-2[8:1]/7,,7-3[8:1]/5,,
{16}1h[8:2]/7,,,,4,,1,,{8}2-4[8:1]/5-8[8:1],,5/2-6[8:1],,
{16}2/8h[8:2],,,,5,,8,,{8}7^5[8:1]/4^1[8:1],,4/7,,
{8}4/1h[8:2],,{24}3,4,5,{16}6-1[8:1]/3v1[8:1],,,,3-5[8:1]/6,,,,73,,
{8}7b-3[8:1],,71,1b-4[8:1]*-6[8:1],,,,{24}35,26,17,
{8}8b-4[8:1],,8/3-8[8:1],,3/6-2[8:1],,1pp5[8:3]/6,,
{8}1,,6,7,4-1[8:1]/8-5[8:1],,8b/4b,,
{8}6^1[8:1]/1,6,3^6[8:1]/6,3,8^3[8:1]/3,8,8/5qq2[8:3]*pp8[8:3],,
{8}5,,,,3-6[8:1]/7-2[8:1],37,3b/7b,,
{8}1,3,8,2b-5[16:1],,6b-1[16:1],,3b-6[16:1],
{8},7b-2[16:1],,5b>8[8:2],,{16}1,8,7,6,5,,
{1}5bs1[8:16]/8bz4[8:16],,
{2},{16}26,,3,4,3,,2-5[8:1]/6-1[8:1],,1/5<4[8:3],,2b/6b,,
{8},,,,
