&title=vs.VIGVANGS
&artist=MisoilePunch♪ / MisomyL / Ponchi♪
&first=0.04
&des=Slask vs. GBLKH
&lv_5=15
&inote_5=(180)
{4},,,,
{4},,,1b/8b,
{16}3,4,3,6,5,6,2,4,3,7,5,6,3b,,,,
{16}3,4,3,6,5,6,2,4,3,6,4,5,2b,,,,
{16}3,4,3,6,5,6,2,4,3,5,3,4,1b,,,,
{16}7,8,,3,4,,6,2,,,{32}15,26,37,48,5b/1b,,,,,,,,
{16}6,5,7,,7,5,6,,3,4,2,,2,4,3,,{16}6,2,7,3,8,4,1,5,
{8}8h[8:1],4h[8:1],6h[8:1],2h[8:1],
{16}4,3,5,4,6,5,7,6,{24}8,5,8,5,8,5,8,5,8,5,8,5,
{16}7bV51[8:2]b,,2v3-5[4:1],,,,,,,,,,2bx/6bx,,,,
{16}8b,,3,4,3,4,3,4,2,5,3,4,2,5,3,4,
{16}1b,,6,5,6,5,6,5,7,5,6,5,6,4,6,5,
{16}8b,,3,4,3,4,3,4,2,4,3,5,2,4,3,5,{16}3,4,,7,8,,2,6,
{16},,34,,7b,5b,6b,,
{16}8b,,3,4,2,4,3,4,1,1,5,5,3,4,2,4,
{16}1b,,6,5,7,5,6,5,8,8,4,4,6,5,7,5,
{24}8,7,6,2,3,4,7,6,5,1,2,3,8x,1,2,3,4,5,1x,8,7,6,5,4,
{16}7,5,,2,4,,37,37,,,84,,6b/2b,,,,
{2}7b-4-1b[2:1]/3h[4:3]b,,2-5-8[2:1]/6h[4:3],,
{32}A2,B2,C,B6,A6,,,,{16}5h[16:1],,5h[16:1],,5h[16:1],,5h[16:1],,6/2<7[8:1]b,,5/1,,2b/6>3[8:1]b,,,,8xw4[8:1]b/6b,,,,8b/Cf,,,,,,,,
{2}2-4-8-6[2:1]/5h[4:3],,7b-5-1-3b[2:1]/4h[4:3]b,,
{16}2b/6b,,5,4,5,4,5,4,6,3,5,4,7>2b[8:1],5,6,4,3<6b[8:1]/7b,,,,1xbw5[8:1]b,,,,1b/Cf,,,,,,,,
{24}78,,,2,,2,4<7[8:1],,3,5,,3,4x-8[8:1],,,2,,,4x,,,3,,,
{24}21,,,7,,7,5>2[8:1],,6,4,,6,5x-1[8:1],,,7,,,5x,,,6,,,
{24}78,,,2,,2,5,,5,3,,3,6,,6,4,,4,{32}8bx,7x,6x,5x,4x,3x,2x,1x,
{16}4h[16:1]/8,,4h[16:1]/7,,4h[16:1]/6,,4h[16:1]/5,,{24}3,2,1,8,7,6,5b/Cf,,,,,,
{24}78,,,2,,2,7-3[8:1],,1,8,,1,7x<4[8:1],,,4,,,7x,,,2,,,
{24}21,,,7,,7,2-6[8:1],,8,1,,8,2x>5[8:1],,,5,,,2x,,,7,,,
{16}4b/8b,,{24}2,3,4,7,6,5,1,2,3,{32}8,7,6,5,1,2,3,4,8,7,6,5,1,2,3,4,
{8}5b/6b,7,1b/8b,2,4b-7[8:1]/3b-8[8:1],,,,
{12}6xbh[4:1],,,5,6,4,{12}5x,5,5,3,4,3,6x,4,6,3,5,3,{24}7x,6,5,2,3,4,{12}6,5,7,{12}3xbh[4:1],,,4,3,5,{12}4x,4,4,6,5,6,3x,3,5,4,6,6,{24}2x,3,4,7,6,5,{12}3,3,4,{4}1x-5[4:5]b,,,,,,,{24}3,4,3,4,,,
{16}56,,7,,34,,2,,6,5,8,,3,4,1,,56,,47,,34,,25,,1x,8,1,8,{24}1x,8,1,8,1,8,
{8}E3/B3,E7/B7,E1/B1,E5/B5,{16}2x,2,6,6,4,4,8,8,
{4}3bpp5-2b[4:2]/7bpp1-6b[4:2],,,,
{16}48,,,56,,,12,,{16}37,,,,{24}4,5,4,5,4,5,
{16}3,4,3,6,5,6,3,7,1>4[8:1]b*<6[8:1]b,,,,1b,,,,
{16}2/5,,3,4,,56,,3,7<4[8:1]/3,,2/1-5[8:1],,78,,1,,
6,,6,3,,3,,4,2-5[8:1]/4,,5V73[16:4]/6,,12,,8,,8,,,6<4[16:6]b,,,6b/5bh[8:5],,,,,,,,,,
{24}6,5,6,5,6,5,6,5,6,5,6,5,{8}7,18,2,34,{24}5,,,2,,4,3,,5,4,,6,{8}56,7,81,2,
{8}34,6pp4[8:2],5,3bh[4:1]/6b,,,{24}2,,4,34,,,,,,
{8}7-5[8:1]/8-4[8:1],16,7b/8b,,2-4b[8:1]/1-5b[8:1],38,1b/2b,,
,26,8<5b[8:1]*>3b[8:1]/1,,8b,,,
{16}7/4,,6,5,8,3,,7,7-3[8:1]/4,,5/1>4[8:1],,78,,1,,
6,,6,5,,5,,7,57,,24,,86,,13,,{32}7,6,5,4,,,1,2,3,4,,,1,8,7,6,{16}E4/E3/D4,,,E5/E6/D6,,,87,,
{8}1-5[8:1],,16,7-3[8:1],,7/2,,1h[4:1],{32}8w4b[8:1],7,6,5,4,3,2,1,8bx/Cf,,,,,,,,
{24}6,,6,3,,3,5,,5,2,,2,4,,,1h[8:1],,,{24}5,,2,6b,,,,,,
{8}2-6[8:1]/1-5[8:1],83,2b/1b,,4h[16:1]/8h[16:1],8h[16:1]/3h[16:1],8h[16:1]/2h[16:1],18,67,45,2b/3b<7[8:1],,7,8,1bw5[8:1],,,,,
(150)
{16}7x/E2,,6x/E3,,5x/E4,,2x/E8,,3x/E7,,4x/E6,,{24}D2,D3,D4,D8,D7,D6,
{16}4,4,4,5,5,5,3,4,24,,,57,,,18,,
{16}3,5,4,6,3,,7,5,,3,3,4,,6,5,6,2,3,4,8,7,6,1,2,3,7,6,5,3,4,2,4,
{32}1x/5,2x,3x,4x,5x/7,6x,7x,8x,1x/5,2x,3x,4x,5x/7,6x,7x,8x,1x/5,2x,3x,4x,5x/7,6x,7x,8x,1x/5,4,3,2,1,8,7,6,5x/1b,4x,3x,2x,1x,8x,7x,6x,5x/2b,4x,3x,2x,1x,8x,7x,6x,5x/3b,4x,3x,2x,1x,8x,7x,6x,5x/1b,2,3,4,5,6,7,8,
{8}5xbqq1[8:5]/1b,,,,8-6[8:1],,,,{16}5pp1b[8:5]/2,,,4,,,3,,2-4b[8:1],,,,,,,,
{32}8x/4,7x,6x,5x,4x/2,3x,2x,1x,8x/4,7x,6x,5x,4x/2,3x,2x,1x,8x/4,7x,6x,5x,4x/2,3x,2x,1x,8x/4,5,6,7,8,1,2,3,4x/8b,5x,6x,7x,8x,1x,2x,3x,4x/7b,5x,6x,7x,8x,1x,2x,3x,4x/6b,5x,6x,7x,8x,1x,2x,3x,4x/8b,7,6,5,4,3,2,1,
(160)
{16}4h[8:1],,7,3h[8:1],,6,2,,
(162)
{4}8-4[8:1]/5,7b/8b,
(164)
{16}5h[8:1],,2,6h[8:1],,3,7,,
(166)
{4}1w5b[8:1]/4,1b,
(168)
{16}7-4[8:1],8,6,8,7b,,,,
(170)
{16}2-5b[8:1],1,3,1,2b,,,,
(172)
{24}8b,7,6,{16}3,3,
(174)
{24}7b,6,5,{16}2,2,
(176)
{32}6b,5,4,3,2,1,8,7,
(178)
{32}6/2b,3,4,5,6,7,8,1,
(180)
{24}2x,1x,2x,1x,2x,1x,2x,1x,2x,1x,2x,1x,3,8,4,7,5,6,5-1[8:1],6,5,6,5,6,
{8}5b-7-4-8-3-1b[8:12],,,,,,,,,,,,,,,,,
{32}84,3x,,,84,3x,,,84,3x,,,73,6x/2x,,,62,5x/1x,,,{16}1x-6b[8:1]`5x-2[8:1],2x/6x,3x/7x,4x/8x,{32}E5/E1/Cf,,,,,,,,{4},,,,,,,
{32}8b/3b,7,6,5,,,1b/6b,2,3,4,,,7b/3b,62,51,48,{16},,24,,,57,,,{24}1,8,1,8,1,8,1,8,1,8,1,8,{8}2,78,56,34,{48}1xw5b[8:1],D1/D2,A8/A2,D3/D8,A3/A7,D4/D7,A4/A6,,,,,,1b/Cf,,,,,,,,,,,,
{16}2,2,5,5,4,4,7,7,{24}2,3,4,1,2,3,8,1,2,7,8,1,{16}4,4,6-2b[8:1],5,7,5,6b,,,,5-1b[8:1]/8<4b[8:1],,47,,5b/8b,,,,6-1b[8:1]/2v5b[8:1],,37,,6b/2b,,,,{16}3,4,2,,{16}7x<5b[8:1]/8xp4b[8:1],,,,8b>2b[8:1]/7bq3b[8:1],,,,8b/7b,,,,
{24}6,,5,{8}5xb/7xb,3b/4b,1b/6b,4b/2b,{24}5,,5,3,,4,
{8}4xb/2xb,6b/5b,8b/3b,5b/7b,3b/4b,1b/6b,{24}2,,2,4,,3,
{8}3bx/4bx,2b/1b,8b/7b,6b/5b,{32}1,2,3,4,7,6,5,4,2,3,4,5,8,7,6,5,{8}1-5b[8:1],,1b/6b,7-3b[8:1],,7b/2b,,1h[4:1],{32}8w4b[8:1],7,6,5,4,3,2,1,8bx/Cf,,,,,,,,
{24}6,,6,4,,4,8,,8,2,,2,{8}24,4-8[8:1]b/3-7[8:1]b,65,4b/3b,,{32}1,2,3,4,5,6,7,8,1b/5b,,,,{8},
4h[16:1]/8h[16:1],8h[16:1]/3h[16:1],8h[16:1]/2h[16:1],81,76,54,3b<7[8:1]/2b,,8,1,2b-5[8:1]*-6[8:1],,,,8x-4[8:5],,,,,,,,{32}1,2,3,4,1,8,7,6,8,1,2,3,8,7,6,5,{32}1,2,3,4,5,6,7,8,15,26,37,48,5b/1b,,,,,,,,
{24}3,4,3,{16}5,2,{24}6,5,6,{16}4,7,{24}2,3,4,7,6,5,{16}3,4,1,,
{24}6,5,6,{16}4,7,{24}3,4,3,{16}5,2,{24}7,6,5,2,3,4,{16}6,5,8,,
{24}3b,4,3,{16}5,2,{24}6,5,6,{16}4,7,{24}1,2,3,5,6,7,{16}1,8,1,,
75,57,,24,24,,15,37,,,{32}84,73,62,51,4b/8b,,,,,,,,
{24}2b,3,4,7,6,5,{32}1,2,3,4,8,7,6,5,{16}2,2,{24}8,3,1,2,8,3,1,2,8,
2b,3,4,7,6,5,{32}1,2,3,4,8,7,6,5,{16}1,1,{24}7,8,7,1,6,1,7,8,7,
1b,2,3,7,6,5,{32}2,3,4,5,1,8,7,6,{16}3,3,{48}8,7,6,5,4,3,2,1,8,7,6,5,4,3,2,1,8,7,
{16}6xh[2:1]/2xh[2:1],,,,,,,,,,,,
{24}1,5,2,6,3,7,4b,5,6,7,8,1,
6,2x,7,3,8,4,1b,2,3,4,5,6,
3,7x,2,6,1,5,8b,7,6,5,4,3,6,2x,5,1,4,8,3b,2,1,8,7,6,{16}51,6/2,3-6-1-4-7-2-5-8-3b[48:66]b/7,8xh[48:75]/4x,,,{8},,,,,,,,,,,,
{8}6b/2b,8b/4b,6b-1b[8:1]`2b-5[8:1],,,{16},,B7,C,B3,
