&title=ヒミツ
&artist=MIMI(feat.可不)
&first=-0.01
&des=yghh
&lv_5=12+
&des_5=yghh
&inote_5=
(168){4},{8},,,5,,,,4,
,,,6,,,,B7,
{24},,,,,,,,,,{3}4,
{24},,,{8}5,,,,3,,,,B2,
,,,5/4h[2:1],,,5,
6h[8:3],,,B7,E8,,,,8/1,
,7/2,,3>2-5[4:1],,,7,
7-5-8[8:3],,,2,2>5-1[2:1],,,,6,
7,8,8,2h[8:3],,,5,
5h[8:3],,,4,4,,6/5,
,7/6>3[4:1],,8-3[4:1],,,,2x,
,2,,2,,3,,4/5,
,6/3,,E1,,8/1,{16}3,4,{8}3,
{16}6,5,{8}6,3,3-6[8:1],,3/7-4[8:1],,7/1>5[4:1],
,1/8,,7,7,6/5,{16}2,4,{8}3,
{16}7,5,{8}6,2,2-4-1q5[2:1],,6,,7,
,8,,3,3,{16}6,5,{8}7,{16}2,4,
{8}3,6,7/8,1-5[8:1],,1/8-6[8:1],,8/2-4[8:1],
,2/7,,7,6,5x>2q7<5[16:23],{1},{4},,,{16},,{24},{3}E7,
{6},E3,,,{3}Cfh[12:7],
{24},,,,,,{8}8x,8x,,8/1,2,3/4,
{4}5>2[4:1],{8}5/6,7,8,8b-2[8:1],,3/8,
4,5-1[8:1],,5/6,7,8,2,4/3,
{4}5v8[8:1],{8}5/4,3,3,2-4[4:1],,4-6[4:1],
,6,,7h[4:1],,2<7[4:1],,7>2[4:1],
,,B6/B7,B6/B7,,1/8h[8:3],,2,
{4}2-6[8:1],{8}2,7,5,4,3,2,
{4}E2f,{8}1x,1x,,7x-3[8:1],6x,7x/1x-4[8:1],
2x,8bx/1bx,7bx,5bx/4bx-6[8:1],,4/3,2,1,
{4}1b-7[8:1],{8}1/6,5,4,4b-8[8:1],,3>1[8:1],
3,7,,B7/A7,B6/A6,5x/4x,4x/3x,3x/2x,
{4}1x/2xh[4:1],{8}8,7-3[8:1],,7>2[8:1],,7<4[8:1],
,7-2[4:1],,,,3h[4:1],,1x,
1,5h[8:3],,3x,3,1-4[8:1],1-6[8:1],1,
{4}1,{8}A3/D3/A2/A6/D7/A7,E8/B8/B1/E2,,5h[8:3],,2,
{4}2,{8}7,7-5[4:1],,5-1[4:1],,1-6[4:1],
,,3,3,,1/8b,,3,
{16}3,4,{8}3,6,6,7,8,2/1,3,
2/1,8,1/2,3,4/5,5bx/4bx,,3,
{16},4,{8}3,6,6,5,5,4,4,
{16}3,2,1,8,7,6,5,4,{8}3b,{16}8x,5,6,5,7x,4,
5,4,6x,4,5,4,6x,4,5,4,8x,4x,5,4,2x,4x,
5,4,{24}7x,6,5,4,3,2,1,8,7,{8}6,2-6[8:1],2,1-5[8:1],
1,8-4[8:1],8,7-3[8:1],7,1,2,5x/4x,
B3/A3,B7/E7,E2/B2,E5/D5,,5/4h[2:1],,,,B6/E7/B7,
,,,4/5h[2:1],,,,B3/E3/B2,
,,,4/3h[2:1],,,,E8/B8/B7,
,,,5/6h[2:1],,,,B2/B1/E2,
,,,3/4h[2:1],,,E1,
B1/B8/E1,,C,,6/5h[2:1],,,E1,
B8/E1/B1,,E1,E8/E2,E7/E3,,B6/E6/B5,
,B3/E4/B4,,5x,{16}5x,6x,7x,8x,1x,2x,3x,4x,
{32}5x,D5,A4,D4,A3,D3,A2,D2,A1,D1,A8,D8,{8}A7f,,E1,{16}6,5,{8}6,
{16}3,4,{8}3,6,6-3[8:1],,6/2-5[8:1],,2/8<5[8:1],
,8/1,,2,2,3/4,{16}7,5,{8}6,
{16}2,4,{8}3,7,7-5v8-6[2:1],,2,,3,
,4,,2,2,{16}6,5,{8}7,{16}3,4,
{8}2,2,1/8,7-2[8:1],,7/3-6[8:1],,3/8w4[8:1],
{16},,8,Cf,,,,,{8}6x/3x,4>2q7<5[8:11]/5x<7p2>4b[8:11],,,,,,,,,,,,,,Ch[16:5],
{24},,,,7,,,,,6,{48},,,,{16}6,
5,{8}3,2,1,1,8b>3[8:1],,8/7,
6,6b<8[8:1],5,4b-2[8:1],5bx,6b-1[8:1],,6,
3,4,5,6,7,1/8-3[8:1],7,8/1-6[8:1],
2,1-5[8:1]/8-4[8:1],,1/8,,C,{16},,4,5,
4,6,5,6,3,4,3,4,3x,2x,{8}6x/1x,7,8/1,
2,6/4,7,5/3,2,5h[8:13],,B3,
C,B2,E3,A3,D3,A2,E2,B1,
B8,E8,B7,B6,B5,E5,,,,E6/E4,
,,,B6/B3,,,,E1,
,,,E7/E3,,,,B7/B2,
,,,Cfh[8:5],,,,,8x,
8x,,1/8,7,6/5,
{4}4<7[8:1],{8}4/3,2,1,1b-7[8:1],,1/6,
5,4b-8[8:1],,4/3,2,1,7,6/5,
{4}4>1-4[4:1],{8}4/6,7,8,7-5[4:1],,5-3[4:1],
,3,,2h[4:1],,6>3[8:1],,3<6[8:1],
,,C,E1,,4/5h[8:3],,2,
{4}2-6[8:1],{8}2,7,5,4,3x,2bx,
{4}E2f,{8}7,7,,2x-6[8:1],3x,2x/8x-4[8:1],
7x,8bx/1bx,2bx,4bx/5bx-3[8:1],,5/6,7,8,
{4}8b-2[8:1],{8}8/3,4,5,5b-1[8:1],,6<8[8:1],
6,2,,D3/E3,A3/B3,4x/5x,5x/6x,6x/7x,
{4}8x/7xh[8:3],{8}2,2>5[8:1],,2<7[8:1],,2-6[8:1],
,2>5[8:1],,,,6h[8:3],,8,
8,4h[8:3],,8,8,E7f/D7f,D5f/E5f,D3f/E3f,
{4}E1f/A8/A1,{8}6/3,7/2,8/1,2h[8:3],6,6,
,,5,5q3[4:1],,3p6[4:1],,6<3[4:1],
,3q8[4:1],,8<5[4:1],,5x>5[8:17],{1},,,{4},,{8},Cf,
,3/4,5,6,
{4}7h[2:1],{8}2,2,,2h[8:1],1xh[8:1],8xh[8:1],
{4}7bxh[4:1],{8}8,6/1,5/2,3,4-6[8:1],4,
3>1[8:1],3,8-5[8:1],7,8-3[8:1],1,8,7,
6,5h[4:1],,4-8[8:1],,4<3>6[4:9],,,,B2,
,,,E2,,,,B8,
,,,E7,,,,E5,
,,,E4,,,,E6,
,E5,B5/B4,B6/B3/B8/B1,
E
