&title=ENDYMION
&artist=fallen shepherd ft. RabbiTon Strings
&first=-0.168
&des=墓
&lv_5=14+
&des_5=墓
&inote_5=
(220){4},,,(110),
{1},{24}6>4[24:1],
5,6,5,,,{8}6/4,{24}3<5[24:1],4,3,{8}4,3/5,7/2,{24}3,5,4,
{12}6h[12:1],5h[12:1],{48}4h[48:7],,,,,,,3h[48:11],,,,,,,,,,,{24}Ch[24:17],{4},,{16},,{24},{16}1,
1>4[16:1],,6,6-2[16:1],1,{8}8,7/6b,{16}5,5<8[16:1],
,2,3-7[16:1],5,{8}1,8/3b,{16}6v1[16:1],5,,1<5[16:1],6,3,2,1,
{8}2b,{16}3-5[16:1],4,,7,3-7[16:1],8,{32}2,1,2,1,{8}3b,{16}8-4[16:1],6/1,5p2[8:1],2,
{8}8,5,8b,{16}4/6,3,2/4,5,2>5[16:1],7,{32}2,8,2,8,{8}2b,
{16}7,6,5,2,3,4,5b/6b,6/5,7b/4b,7/4,{32}8/3,,,6/1,,,{16}4/3,8/1,8/1,
(220){2}2h[4:1]/7h[8:1],{8}1b/8b,{16}2,1,3,8,{8}2,
{16}6b,5,{8}6,{16}2b,1,{8}2,8b/7h[8:3],{16}1,2,3,4,{8}5,
{16}8/2h[4:1],7,6,5,{8}4,2,2b,7,7b,{16}2,1,
{8}2b,{16}6,5,6,5,{8}7,{16}2,1,{8}3,5b,5,
4b,{16}7,8,7b,8,{8}7,{16}3,4,{8}3,{16}7,5,6,5,
{8}7b,2,2b,2,6/4b,{16}7,8,7,8,{8}6,
{16}1,2,{8}3,{16}6b,5,{8}7,3b,3,2/8b,{16}1,7,
1,7,{8}1,6,6,{16}2b,4,2,4,3b,5,3,5,
{8}4b,4,6/4,5/3,5,5,2/5,4/7,
8,8,7/4,6/3,2,2,1/4,2/5,
7,7h[8:1],{16}5,6,4,5,{8}3,3h[8:1],{16}1,2,8,1,
{8}7,7h[8:1],{24}5,4,3,2,1,8,{8}4/7,4h[8:1],{24}7,8,1,2,3,4,
{8}5/8,8h[8:1],6,6h[8:1],4,4h[8:1],2,2h[8:1],
{16}8,7,6,5,4,3,2,1,{32}8x,A7,6x,A5,4x,A3,2x,A1,8x,A7,6x,A5,4x,A3,2x,A1,
{1}8xh[2:1],
{4}5h[4:1]/4h[8:1],{8}4h[8:3],5h[4:1],,,{4}3b/6b,
1/8,{8}2/8h[8:1],2,2/7h[8:1],2,2/6h[8:1],2,
2/5h[8:1],2,3/4h[8:1],{16}1,8,{8}7h[8:1],5h[8:1],{16}8,1,{8}2h[16:1],
{4}8b,{8}7/8h[8:1],7,7/1h[8:1],7,6/2h[8:1],6,
6/3,{16}7,8,{8}7,6/3,{16}2,1,{8}2,{16}8,1,{8}8,
{4}7/2b,{8}3/4h[8:1],3,3/5h[8:1],3,3/6h[8:1],3,
3/7h[8:1],3,1,1,{16}7,6,5,4,3,4,5,6,
{4}7h[4:1],{8}5,4,3h[4:1],1,8,7,
{16}6h[#1.090908]/E1,E3,E5,E7,E1,E3,E5,E7,E1,E3,E5,E7,1x,3x,5x,7x,
{4}1x,8b,{16}7,,,5,{8}7,7,
6/5,6/5,7/4,7/4,{16}3,2,1,8,7,8,1,2,
{4}3/4,1b,{16}2,,,8,{8}2,7/1,
{16}2,3,4,5,6,5,4,3,{8}8h[16:1],8h[16:1],7/1,5/3,
{4}6/2,1b,{16}7-4[8:1],,,8,{8}7,1,
{16}3-8[8:1],,,5,{8}3,4,6,6,7,7,
3h[8:1],4h[8:1],5h[8:1],6h[8:1],3h[8:1],5h[8:1],4h[8:1],6h[8:1],
1x,7/4h[8:1],8x,2/6h[8:1],1x,8,3x,6,
{4}7/2,3,3/7b,{8}3,8b,
3,6b,3,7,3/8b,8/3b,2/7b,7/2,
1/6,{16}7,8,{8}7,7,2h[8:1],1h[8:1],8h[8:1],7h[8:1],
3b,{16}2,1,{8}2,1b/6b,{16}7,8,{8}7,{4}1b>4[8:1]/6b>4b[8:1],
6/1,7,7/1b,{8}7,2b,
7,4b,7,3,8/2b,8/2b,7/3b,7/3,
1/2,{16}7,8,{8}7,7,4/6h[8:1],3,4/2h[8:1],5,
{4}7b-4[8:1]/1b>3b[8:1],7/1-6[8:1],1/5w1[8:1],5b,
7/3,2/8<5[8:1],2/8,{8}2,4b,
2,6b,2,8b,1/2,2/1,8/7,7/8,
3/4,5/2,6/5,7/4,8/1,7/2,6/3,5/4,
3,{16}2,1,{8}2,6,{16}7,8,{8}7,{4}7/2,
{16}3,4,2,5,1,6,8,7,1,8,2,7,3,6,4,5,
4h,4h,4h,4h,4h,4h,4h,4h,4h,B6,B4,B8,B2,E6,A4,E8,
{2}Ch[2:1],B2/B3/E3/E7fh[2:1],
{8}2,3,4,5,{2}6h[4:1],
{8}3-8[8:1],4h[16:1],3h[16:1],7-3[8:1],1h[16:1],7h[16:1],2<7[8:1],4h[16:1],
2h[16:1],6-8[8:1],5h[16:1],6h[16:1],{16}1,2,3,4,5/2,3,4,5,
{8}6/1-7[8:1],5h[16:1],1h[16:1],6>3[8:1],3h[16:1],6h[16:1],1,8,
{16}2,1,2,1,2,1,2,1,3,8,3,8,3,8,{8}3,
6-1[8:1],4h[16:1],6h[16:1],2>4[8:1],8h[16:1],2h[16:1],7h[16:1],5h[16:1],
{16}7,8,7,8,7,8,{8}7,1,1,6,6,
5/4,{16}3,4,2,4,{8}3h[8:1],{16}6,4,5,4,{8}6h[8:1],{16}8,1,
{12}2h[12:1],6h[12:1],1h[12:1],4h[12:1],2h[12:1],8h[12:1],5,6h[12:1],3,5,4,7,
{16}1h[16:3],,,7,{8}8x,6,{16}6h[16:3],,,2,{8}1x,3,
{16}3h[16:3],,,6,{8}5,3,{4}3w7[8:1],3,
{16}5h[16:3],,,3,{8}4x,6,{16}6h[16:3],,,1,,,{8}3/4,
{16}5,6,7,8,5,4,3,2,{8}1/7,7/1,8/2,8/2,
{16}1,,,6,{8}5,{16}3,4,2h[16:3],,,4,{8}3,{16}7,8,
7h[16:3],,,2,{8}1,{16}3,4,3h[16:3],,,7,{8}5,5,
{16}7h[16:3],,,5h[16:3],,,{8}6,{16}2h[16:3],,,3h[16:3],,,{8}4h[8:1],
{16}8,7,6,5,4/8,7,6,5,4/7,6,5,4,3/7-3[8:1],6,5,4,
{1}C,
{4},6p8p2[4:5],,,,,{2}2p4p6[4:5],
{4},,,1qq5[2:1],
,,6,6,
{8}2h[4:1]/4pp1[2:1],,,2b,,,{4}3h[4:1],
8,{8}8h[4:1],4,4,7h[4:1],3,3,
6h[4:1],2,2,5h[4:1],1,1,B8,B2,
B6,4h[8:3],{16},,,,6,5,6,5,7,8,7,8,
{4}6h[16:1]/1h[8:1],{16}2,8,2,8,1,7,1,7,8-4[8:1],6,8,6,
{4}8,8bx/1bx,{12},8/1,8/1,1/8,,8/1,
,8/1,,7/4,,6/3,,5/2,,{4}1p5[6:1]/8q4[6:1],
8/1,{12}3,4,2,8,5,7,2,5,4,
6,4,7,1,1,1,3,3,3,5,5,5,
8,8,8,1>3[8:1],{24},{8}7,1-6[8:1],6,1>4[8:1],4,
1<6[8:1],8,1>3[8:1],5,1,7,6/5,4x/7x,
{16}8,1,{8}8,2<1-7[8:1],8,2,5,{24}2<7[8:1],3,4,7,,,{8}2,
5,{24}2V86[8:1],3,4,8,,,{8}2,4,{24}2,3,4,7,,,{4}8/1,
{8}2-5[16:1]/8-5[16:1],2/8,{4}2/8,{8}6/4,7,
8/2
||这是一个标记~
,3h[16:1]/5h[8:1],,6/4,7,5/3,2,7/1,
6,7/3,{4}6h[8:1]/4h[16:3],5h[8:1]/3h[8:1],5h[16:5]/3h[4:1],
{8},2/8,{4}8/2,{8}7/1,6/2,5/3,6h[8:1]/2h[16:3],
,7/3,{4}7/3,{8}7/1,5/3,6/2,6/2,
,3/5-8[16:1],5/3,5/3,,1,8,6/4,
2,5/3,7/2,4/6,7/2,3/4,{4}8b,
,,{2}2>7[8:7]/7<2[8:7],
{16},,,,,,,,,,,1xh[16:7]/8xh[16:7],{4},{16},,{24},2bx/7bx,
6bx/3bx,{4}5bx/4bx,
E
