&title=Legend of Moonlight
&artist=Memme
&first=0
&des=kUsa
&lv_5=14
&inote_5=(160)
{1},
{16},,,,,,,,,,,,,,,,
{16}2h[8:2]/4h[8:2],,,,,,3<2[8:7]/5h[8:3],,,,,,,,,,
{16}8-4[4:1],,,,,,,,,,,,,,7,,
{16}5h[4:1]/7h[4:1],,,,,,4h[8:3]/6pp5[8:7],,,,,,,,,,
{16}4^1[4:1],,,,,,,,,,,,,,2,,
{16}2h[8:2]/4h[8:2],,,,,,3<2[8:7]/5h[8:3],,,,,,,,,,
{16}8-4[4:1],,,,,,,,,,,,,,7,,
{16}5h[4:1]/7h[4:1],,,,,,4h[8:3]/6-3[8:1],,,,,,,,,,
{16}4h[4:1]/2h[4:1],,,,,,5h[8:3]/3-6[8:1],,,,,,,,,,
{16}7-4[8:1]/4,,,,8,,8-3[8:1],,,,,,4^1[8:1],,,,
{16}5^8[8:1],,,,2,,2h[4:1],,,,1,,2,,3,,
{16}7-4[8:1]/4,,,,3,,3-8[8:1],,,,,,4^7[8:1],,,,
{16}1^4[8:1],,,,8,,8h[4:1],,,,5,,4,,3,,
{16}2-5[8:1]/5,,,,1,,1-6[8:1],,,,,,5^8[8:1],,,,
{16}4^1[8:1],,,,7,,7h[4:1],,,,8,,7,,6,,
{16}2-5[8:1]/5,,,,6,,6-1[8:1],,,,,,5^2[8:1],,,,
{16}8h[4:1],,,,1,,8,,2^4[8:1]/7^5[8:1],,,,,,,,
{16}B1f,,,,,,,,,,,,,,,,
{32}D4,D5,D6,,{16},,,,,,1,8,1,,2b/7b,,,,
{16}7h[8:1],,5,7,,4,5,,2,4,,1,8,,1/7,,
{16}2h[8:1],,4,3,,5,4,,6,5,,7,6,,5/7,,
{16}8h[8:1],,5,7,,4,5,,2,4,,1,8,,1/7,,
{16}2h[8:1],,8,1,,6,5,,{24}7,6,5,1,2,3,{16}4b/5b,,,,
{16}2h[8:1],,4,2,,5,4,,7,5,,8,1,,28,,
{16}7h[8:1],,5,6,,4,5,,3,4,,2,3,,24,,
{16}1h[8:1],,4,2,,5,4,,7,5,,8,1,,28,,
{16}7h[8:1],,1,8,,3,4,,{24}2,3,4,8,7,6,{16}1b/5b,,,,
{16}2x^4[8:1],,4x^7[16:3],,,7x^2[16:3],,,2x^5[16:3],,,5x,,,6,,
{16}6x^8b[8:1],,8x^3[16:3],,,3x^6[16:3],,,6x^1[16:3],,,1x,,,2,,
{16}2x^4b[8:1],,4x^7[16:3],,,7x^2b[16:3],,,2x^5[16:3],,,5x,,,6,,
{16}6x^8[8:1],,8x^3b[16:3],,,3x^6[16:3],,,6x^1b[16:3],,,1x,,,2b,,
{16}4x^2[8:1],,2x^7[16:3],,,7x^4[16:3],,,4x^1[16:3],,,1x,,,8,,
{16}8x^6b[8:1],,6x^3[16:3],,,3x^8[16:3],,,8x^5[16:3],,,5x,,,4,,
{16}4x^2b[8:1],,2x^7[16:3],,,7x^4b[16:3],,,4x^1[16:3],,,1x,,,8,,
{16}8xbh[8:1],,,1xh[8:1]/7xh[8:1],,,2bhx[8:1]/6bhx[8:1],,,3xh[8:1]/5xh[8:1],,,2,6,3,5,
{16}1bV35[8:1]*V75[8:1],,,,,,,,{48}E6,B5,B4,{16}E4,,,2b-6[8:1]/7bx,,,,
{16}2-4[8:1],,,7,2-6[8:1],,8,,2-4[8:1],7,,7,2,,8xb,,
{16}8xb-4[8:1],,,3,8-6[8:1],,2,,8-4[8:1],3,,3,8,,2xb,2xb,
{16}2xb^5[8:1],,,1,2,,8,,7^4[8:1],,,8,7,,1,,
{16}2-6[8:1],,,,26,,7,7,5,6,4,7,3,8,2,1,
{16}3-8[8:1],,,5,3,,6,,7-4[8:1],,,1,7,,2,,
{16}3,4,3,6,5,6,3,4,3,6,5,6,4,5,3,4,
{16}2,8,1,,6,4,,7,8,,5,3,,8,1,8,
{16}2,4,3,5,4,6,5,7,{32}4,3,2,1,8,7,6,5,{16}8b/4b,,,,
{16}1-5[8:1]/7,,5,5,1,,6,,4-8[8:1],,8,8,4,,7,,
{16}1-4[8:1]/6,,5-8[8:1]/2,,{16}1,,5,,3,,6,5,,8,1,7,
{16}3b,5,3,5,4,5,4,5,6,5,6,5,7,5,7,5,
{16}4b,6,4,6,5,6,5,6,7,6,7,6,8,6,8,6,
{16}5b,7,5,7,6,7,6,7,8,7,8,7,1,7,1,7,
{16}2,1,3,8,5,6,5,6,8,7,1,6,3,4,3,4,
{16}1,3,2,,7,5,,8,1,,4,2,,5,4,5,
{16}3,1,2,8,1,7,8,6,{32}1,2,3,4,5,6,7,8,{16}1b/5b,,,,
{16}5-1[8:1]/3,,1,1,5,,2,,8-4[8:1],,4,4,8,,3,,
{16}5^8[8:1]/2,,1^4[8:1]/6,,{16}5,,1,,7,,3,4,,1,8,2,
{16}6b,4,6,4,5,4,5,4,3,4,3,4,2,4,2,4,
{16}5b,3,5,3,4,3,4,3,2,3,2,3,1,3,1,3,
{16}4b,2,4,2,3,2,3,2,1,2,1,2,8,2,8,2,
{16}7,8,6,1,4,3,4,3,1,2,8,3,6,5,6,5,
{16}7,4,5,,2,4,,1,8,,5,7,,4,5,4,
{16}6,8,7,1,8,2,1,3,{32}8,7,6,5,4,3,2,1,{16}8b/4b,,,,
{16}2-5[8:1]/5,,7,7,2,,8,,1-6[8:1]/4,,3,3,1,,2,,
{16}1^4[8:1]/4,,7-3[8:1]/8,,16,,7,,1,,7,2,,6,4,5,
{16}1b,4,3,4,8,4,3,4,7,4,3,4,6,4,3,4,
{16}2b,5,4,5,1,5,4,5,8,5,4,5,7,5,4,5,
{16}3b,6,5,6,2,6,5,6,1,6,5,6,8,6,5,6,
{16}2,1,3,8,5,6,5,6,8,7,1,6,3,4,3,4,
{16}2bx/5bx,,2/5,,4/7,,4/7,,1/3,,1/3,,6/8,,6/8,,
{16}2b,2h[16:3],,5b,5h[16:3],,7b,7h[16:3],,3b,3,,{24}4b/8b,1x/5x,2x/6x,3x/7x,4x/8x,1x/5x,
{16}2bx/6bx,,2xb/6xb,,,,E4,,,,,,C,,,,
{16},,,,,,2,,2h[8:3],,4,,4h[8:3],,,,
{16}1,,1-5[8:1],,,,7,,7h[8:3],,4,,4h[8:3],,,,
{16}8w4[8:1],,,,,,,,E2,,,,,,,,
{16}3bh[8:1]/7bh[8:1],,,,,,E6,,,,,,C,,,,
{16},,,,,,7,,7h[8:3],,5,,5h[8:3],,,,
{16}8,,8-4[8:1],,,,2,,2h[8:3],,5,,5h[8:3],,,,
{16}8-4b[8:1],,,,,,,,3s7-1-4[8:26]/6z2-8-5[8:26],,,,,,,,
{16},,,,,,,,,,,,,,,,
{16},,,,,,,,,,,,,,,,
{16},,,,,,,,,,,,,,,,
{16},,,,,,,,,,,,,,,,
E
