&title=Ready to Rock
&artist=BAND-MAID
&first=0
&des_1=ASZ
&des_2=ASZ
&des_3=ASZ
&des_4=ASZ
&des_5=ASZ
&lv_5=14
&des_6=ASZ
&des_7=ASZ
&des=ASZ
&inote_5=(180){16},{8},,{1}5V74-6V47v5V74v6V47-5-1[8:13]/3h[1:2],,{4}5xV74-6V47v5V74v6V47-5-1b[8:13],,,,{16},{4}2b,2b,2b,2b,
{8}4h[16:1]/5h[16:15],4h[16:1],4h[16:1],4h[16:1],4h[16:1],4h[16:1],4h[16:1],4h[16:1],
{16}7x,5,8,2x,7,5x,8,2,
{8}4h[16:1]/5h[16:1],4h[16:1]/5h[16:1],4h[16:1]/5h[16:1],4h[16:1]/5h[16:1],
{16}3x,6x,2bx,1bx,4,5,3x,6x,3x,6x,4,5,3x,6x,4,5,4,5,2bx,1bx,4,5,3x,6x,3x,6x,4,5,B3,B6,4,5,
{4}1bx/2bx,1bx/2bx,1bx/2bx,1bx/2bx,{8}1b/2b,1b/2b,1b/2b,1b/2b,
3h[16:1]/4h[16:15],3h[16:1],3h[16:1],3h[16:1],8h[16:1],1h[16:1],2h[16:1],3h[16:1],
{16}6x,4,5,4,6x,4,5,4,6bx,5,7bx,5,8bx,5,1bx,5,
{8}1b/6x,1b/5x,1b/4x,1b/3x,
7V52[3:1]/2,,,{8}3,8-4[6:1],{8},,5,
7/3V58[3:1],,,{8}6,1w5[6:1],{8},,,
8-4[6:1]/8?-4[6:1],,,,1w5[6:1]/1?w5[6:1],,,,7-3b[6:1],,,{8}6,2w6b[6:1],,,,
8V25[3:1],,,3,8V63[3:1],,,5,1V74[3:1],,,6,1V36[3:1],,,
8,5V38[3:1],,,2,5V72[3:1],,,8,4V61[3:1],,,7,4V27[3:1],,,,
8h[8:3],,,{16}7,,2/7h[16:6],,,2,,,2,,
{8}4h[8:3],,,{16}3,,6/3h[16:6],,,6,,,6,,
{24}6<2v4b[2:1],5,4h[16:3],,,{8},,,,{24}1-5[8:1],,,,3,2,
{8}1/7-4[8:1],,7/2-6[8:1],,2/8-4[8:1],,{24}5,4,3,2,1,8-5[3:1],
{8}5,5,5,,,{16}6,5,4-1[2:1]/7,,{8},3,3,3,3,{24}4,5,6,7,8,1,E5,E6,E7,E8,E1,E2,
{8}5x-8[2:1],5,5,8x,,,5x,,
{16}1,8,1,8,2,7,2,7,4,5,1,7,5,6,3,1,
{8}2b/8b-4[8:1],1,1,1,1-5[8:1]/7,8,8,8,2-5[8:1]/8,1,1,1,1/7-4[8:1],8,8,8,
5-1[4:1],,5h[2:1],,,,1,,
4-8[4:1],,4h[2:1],,,,8,,
2/7,,2/7,,2/7,,2/7,,
3h[8:1]/6h[8:1],,3h[8:1]/6h[8:1],,3h[8:1]/6h[8:1],,3h[8:1]/6h[8:1],,
{16}4,5,4,5,4,5,4,5,
3,6,3,6,3,6,3,6,
1,8,1,8,1,8,1,8,
5,6,3,1,2,4,8,7,
{8}3-6[8:1],6,,7-2[8:1],2,,3-6[8:1],6,,7-2[8:1],2,,
4-1[8:1],1,,8-5[8:1],5,,4-1[8:1],1,,8-5[8:1],6x,,
{12}A2,A3,A4,E3/D3,E4/D4,E5/D5,A3,A4,A5,
{8}1x/8x,,8-4[8:1],7,,1-5[8:1],2,,8-4[8:1],7,,{16}1-5[8:1],2,3,,
{8}1-4[4:1],6h[4:1],,,,8-5[8:1]/1-4[8:1],,,,
{16}6,7,8,,7,8,1,,{8}8h[4:1]/1,2,3,4,1h[4:1]/2,3,4,5-1[8:11],
{1}Ch[4:6],,3h[8:6]/8>3<3<8-5-3b[8:5],
{4}1b-4[8:1]/8b,8b/1b-5[8:1]/1?-6[8:1],1b/8b-5-3[8:1],8b-6[8:1]/8?q6[8:1]/1b,
8-3[8:1],8-6[8:1],8-4[8:1],8-5[8:1],
1-6[8:1],1-3[8:1],1-5[8:1],1-4[8:1],
{16}8,8h[16:1],,7,7h[16:1],,6,6h[16:1],,1,8,2,7,3,5,,
{4}1b/8b-3[8:1]`8?-4[8:1],1b-5[8:1]/8bv5[8:1],1b/8b-4[8:1]`8?-2v3[8:1],1b/8b-5[8:1]/8?q5[8:1],
8,1/7,1-6[8:1]/1?-4[8:1],1,
5-8[4:1],5,5-1[8:1],5,
4-1[4:1],4,4-8[8:1],4,
{8}1>6[2:1],,,,B2/B3,,,,
{16}8<3[2:1],,,,,,B7/B6,,3-6[4:1],,,,,,,,
{8}8>6[2:1],,,,1<3[2:1],,,,1,,7-3[8:1],,7-4[8:1]/2,,1,
{16}8,1,2-6[8:1],,,,
{4}2/8-4[8:1],3-6[8:1]/8,3/5,8-6[8:1]/8?z4[8:1],,{16}1-6-4[8:1]/3,,,,,,3,
{16},7/8,,3,,7/6,,3,,7/8,,3,,6,7,3,4,
{12}1,,6h[12:4],,2,3,4h[12:5],,2,1,8,7,
{4}1h[4:7]/6b,,,,2b,2b,2b,2b,
{8}5h[8:1],4h[8:1],3h[8:1],2h[8:1],8h[8:1],6h[8:1],4h[8:1],2h[8:1],
7h[8:1],5h[8:1],3h[8:1],1h[8:1],7h[8:1],6h[8:1],5h[8:1],2h[8:1],
{16}7,3,5,,2,6,4,,{8}3x/5x,2x/4x,1x/3x,2x/8x,
{16}3,7,5,,6,2,4,,{8}3x/1x,,2x/8x,,
4h[8:1],5h[8:1],6h[8:1],7h[8:1],1h[8:1],3h[8:1],5h[8:1],7h[8:1],
2h[8:1],4h[8:1],6h[8:1],8h[8:1],2h[8:1],3h[8:1],4h[8:1],7h[8:1],
{4}1-5[8:1],4,2-6[8:1]/7,2/4,
{16}7,8,1,,6,7,8,,7,8,1,,6,7,8,,
{8}2h[8:3]/4-8[2:1],,,,{6}5,5,5,
{8}7h[8:3]/5-1[2:1],,,,{6}4,4,4,
{24}8x<8[2:1],1x,2xh[24:10],,,{8},,,,,,
{24}8b<8b[2:1],1b,2b,,,,{8},,1-4[8:1],,,6b,
6/5x,,6/7x,,6/1x,,6/3x,3b,
3/4x,,3/2x,,3/8x,,3/6x,1b-5-1[4:3]/8bV27-3-6-4b[2:1],{2},{8},,6xv1v6b[2:1],,
{16}7x,8x,1x,2x,3x,,7x-3[8:1],8x,1x-5[8:1],2x,3x,,A1,C,A5,,,
{8}4<6[8:1],3,3,3,5>3[8:1],6,6,6,4-6[8:1],3,3,3,5-3[8:1],6,6,6,
{4}4-1-6[2:1],2,2,2,5-8-3[2:1],7,7,7,
{2}7-5[8:1]/8-3[8:1],1-6[8:1]/2-4[8:1],7-3[8:1]/8-3[8:1],1-6[8:1]/2-6[8:1],
{24}8x,1x,2x,{8}5h[8:1],4h[8:1],3h[8:1],2h[8:1],8h[8:1],6h[8:1],4h[8:1],
{16}2,4,3,4,3,5,2,5,4,5,4,6-2-5-2-6[1:2],2h[1:2],,,,{2},,,,
{1}8>8>8-5-3b[8:5],
{4}1b-4[8:1]/8b,8b/1b-5[8:1]/1?-6[8:1],1b/8b-5-3[8:1],8b-6[8:1]/8?q6[8:1]/1b,
8-3[8:1],8-6[8:1],8-4[8:1],8-5[8:1],
1-3[8:1],1-6[8:1],1-4[8:1],1-5[8:1],
{16}2,2h[16:1],,3,3h[16:1],,4,4h[16:1],,8,1,7,2,6,4,,
{4}1b/8b-3[8:1]`8?-4[8:1],1b-5[8:1]/8bv5[8:1],1b/8b-4[8:1]`8?-2v3[8:1],1b/8b-5[8:1]/8?q5[8:1],
8,1/7,8-5[8:1]/8?-3[8:1],8,
4-1[4:1],4,4-8[8:1],4,
5-8[4:1],5,5-1[8:1],5,
{8}8<3[2:1],,,,B7/B6,,,,
{16}1>6[2:1],,,,,,B2/B3,,6-3[4:1],,,,,,,,
{8}1<3[2:1],,,,8>6[2:1],,,,8,,2-6[8:1],,2-5[8:1]/7,,8,
{16}1,8,7-3[8:1],,,,
{4}7/1-5[8:1],6-3[8:1]/1,6/4,8-5[8:1]/8?-2v3[8:1],,{16}1-5-3[8:1]/7,,,,,,6,
{16},1/2,,6,,2/3,,6,,1/2,,6,,3,2,6,5,
{12}8,,3h[12:4],,7,6,5h[12:5],,7,8,1,2,
{4}4h[4:7]/3,,,,2b,2b,2b,2b,
{8}1/4,2,1/4,3,1/4,8,1/4,5,
2/4,8,3/5,7,2/4,8,3/5,7,
8/5,6,8/5,7,8/5,4,8/5,1,
6/4,2,7/5,1,
{16}2,,2,3,4,,4,,
1/7,5,6,,1/7,4,3,,
2/8,5,6,,2/8,4,3,,
6/4,3,5,3,5,3,5,3,
4/3,6,5,6,5,6,5,6,
{8}5/6,4/7,3/8,1/2,
{16}6,7,8,1,2,3,,
{8}2b/4b,8,5b/6b,1,3b/4b,1b/6b,2b/8b,
{32}5xh[1:5],4xh[32:23],,,{1},
4xh[32:24],4xh[32:24],4xh[32:24],4xh[32:24],,
{8},,,,,,1xh[8:6],7xh[8:5],,,,,{2},1b>1>1[8:5]/8bV24V68>1V35V71[8:5],,
{1}2,3,4<5-1[8:5]/5h[1:1],
{16}2,3,2,,7,6,7,,{32}1-6[8:1],2,3,4,5,6,7,8,1,
{4},8-6[8:1]/8?z4[8:1],8,8-5[8:1]/8?-2v3[8:1],8,
4-8[8:1]/6-1[8:1],4/6,3-8[8:1]/5-1[8:1],3/5,
{8}4-8[8:1]/6,5,4/6-1[8:1],,4/6,,
5-1[8:1]/3,4,5/3-8[8:1],4,3/5,,5-1[8:1]/3,4,3/5,,
2/3-8[6:1],4,4,4,2/3V51[6:1],6,6,6,
7/6v4[6:1],5,5,5,7/6-1<8-2[6:1],3,3,3,
{8}3-8[8:1]/5,2,3/5-1[8:1],,5/4-8[8:1],,4/6-1[8:1],7,2-6[8:1]/6,,2/7,,
{16}5,6,4,5,3,4,
2,1,{8}3/8,5,1/6,4,1/2,5,7-5[8:1]/8,4,
{8}2-4[8:1]/7,8,2/7-5[8:1],1,2-4[8:1]/7,8,2/7,1,
8pp2[2:1],7,6,,,,1b,,{12}1qq7[2:1],1,1,2,2,2,3,,,
{4}8b,
{32}1>6[2:1],E1,B8,B7,E7,,,,,,,,{8}B2/B3,8<3[2:1],,,B7/B6,1,,,8,8/2,,,,
{32}8p5[16:6],E1,B1,B2,E3,,,,,,,,{8}5-7[6:1],1q4[16:6],,,4-2[6:1],8,,,1,1/7,
2,3,4,7/5,,,6,1/4,,,3,6/8,,3/6,,1/3,
5,6,7,8/2,,,1,6/8,,,7,{12}1/3,2/8,1/7,6/5,5/4,3/4-7[8:1],{8}7-3[8:1],3-8[8:1],8-5-3b[8:19],2h[8:25],
{2},,,,,,,
E
