&title=白鳥の湖 ~still a duckling~
&artist=「太鼓の達人」より
&first=-0.1
&des=remdayo
&lv_5=14
&des_5=remdayo
&inote_5=
(240){8},,,,,,{16},5,6,7,
{8}1h[#0.5]/8h[#0.5],,,,,,,,
5,,6/4,,7/3,,8/2,,
1w5[0.5##0.25],,,,1b,,,,
6,,6,,{16}A4,D4,A3,D3,{8}A2,A1h[8:15],
8h[#0.125],,8h[#0.125],,7h[#0.125],,7h[#0.125],,
6h[#0.125],,6h[#0.125],,5h[#0.125],,5h[#0.125],,
7/4h[#0.125],,6/4h[#0.125],,5/4h[#0.125],,4/5h[#0.125],,
3/5h[#0.125],,2/5h[#0.125],,3/5h[#0.125],,4/5h[#0.125],,
6h[#1],,,,1,1,2,2,
3h[#0.875],,,7,6h[#0.375],,,,
1/7-4[0.25##0.1875],,7/2qq4[0.25##0.375],,6,6,6-3[0.25##0.1875],,
6/3,,,,,7,2,6,
3h[#1],,,,8,8,7,7,
6h[#0.75],,,2,3h[#0.25],,,,
6/1,,3/8qq5[0.25##0.625],,2,3,4-1[0.25##0.1875],,
4,,8w4[0.25##0.1875],,,,6h[#0.25],,
4h[#0.25],,2h[#0.25],,8h[#0.25],,6h[#0.25],,
4h[#0.5],,,E8,E7,,5,6,
7h[#0.5],,,E3,E4,,3,2,
1h[#0.5],,,E6,E7,,6,7,
1/8,,2/6-4[0.5##0.1875],,8/4,,6/2xp7[0.25##0.75],,
5xh[#0.375],,,,7x>2[0.25##0.375],,4,5,
6h[#0.75],,,2,3h[#0.25],,{16},,,,7/5,
,,6,5,6,,,{2}7b/4b,
{16}2/4,,,3,4,3,,,{2}2b/5b,
{16}7/1,,,8,7,6,,,{2}6b/2b,
{16}2/8,,,1,2,3,,,{2}3b/7b,
{4}8h[8:1]/5h[8:1],6h[8:1]/2h[8:1],4h[8:1]/1h[8:1],7h[8:1]/3h[8:1],
5h[8:1]/4h[8:1],8h[8:1]/2h[8:1],4h[8:1]/5h[8:1],7h[8:1]/1h[8:1],
2h[8:1]/8h[8:1],6h[8:1]/4h[8:1],7h[8:1]/1h[8:1],5h[8:1]/3h[8:1],
{12}6,5,7,3,4,{96}2,,,,,8x,,,{32}7x,6x,{16}5x,,,{8}4,5,
{4}2b-5b[16:3]/7b-4b[16:3],2>5[8:3],{8}6,7,8,1,
{4}2-4[8:1]*-8[8:1],2w6b[16:3],{2}2b,
{4}6/2-5[16:3],2/7qq4[8:3],{8}3,2,{4}1-5[16:3],
{8}1bx/7bx,8bx-4[16:3],,8bx/2bx-6[16:3],,2bx/7,6,5,
{4}4h[1:1],5,B6/A6/E7f,B8f/E8/E1,
E2f/B2/A2,{8}6/3,2/7,{4}1-5[16:3]/8-4[16:3],8/1,
6/1,3/8,{8}5/2,1/6,{4}7qq4[2:1]/8pp3[2:1],
{8},,,,,6/5,{4}8/2,
{8}7/2>4[16:3],1,2/7-4[16:3],8,7/2-5[16:3],1,2/6-3[16:3],7,
{4}6/1-3[8:1]*-7[8:1],1w5[16:3],1bx,1>5[4:1],
5<1[4:1],1V75b[4:1],5V31b[4:1],1,
{8}6,7x/2x,{32},,,,E2,B2,B3,E4,{8}4xh[8:3],{32}E8,B7,B6,E6,{4}5xh[4:1],
,1/6q7[2:1],{8}5,4,{4}3h[8:1],
{8}2h[2:1],,,6,7h[2:1],,,4,
{4}3h[2:1],,,5/4,
7b-4[16:3],7/1b-6[16:3],1/3b-8[16:3],3/5bpp8-4-1-3>2-6[4:7],
{1}5b/4h[4:7],
{4},,,,3<6pp2>3[2:3],
3/6h[2:3],{8},,,,,,,,,,,,3h[4:7],
,,E2/D2,,E1/D1,,E8/D8,
,E7/D7,,E6,{2}E5,
{8}6h[2:3],,,E8/D8,,E1/D1,,E2/D2,
,E3/D3,,E4,{4}E5,7b/2b,
(60){16}2/8p4[16:1],7/1q5[16:1],6/3,7/2,8<6[16:1],1>3[16:1],6,3,8-3[16:1],1-6[16:1],5,7/2,8/3-5[16:1],1-7[16:1],8,2,
3-6[16:1],1-4[16:1],5,7/2,3,1,5,7/2,1pp5[32:5],6,7,5,6,7,8b,7/3,
(120){8}1/8-5[8:1],5/4-1[8:1],8,4,{16}8-4[8:1],7,1-5[8:1],2,{8}8b,1b,
,6/3,8/1>4[16:3],7/2,{16}8,7,6,5,6bx/3bx,7bx/2bx,{8}1bx/8bx,
6/1,8/3,7/2-6-4[16:3],5/4,2,7,8/1-5[8:1],7/2-6[8:1],
1-7[8:1],2-4[8:1],1,2,6,7/2,{4}8b/1b,
(240)5/6h[8:1],{8}4,5/3,4,6/5,7,8/1,
2,3/1,4,3,{4}4-1[8:1]/5-8[8:1],5/4,
{8}2,1,8,1/7,8,2/1,3,4/5,
6,7/5,8,7,{4}8-5[8:1]/1-4[8:1],1/8,
6/3,2/7-3[16:3],7/1-5[16:3],1/7pp4[16:11],
7,3-8[16:3],3,6/2>5[16:3],
2<7[16:3],2-5[16:3],2-7[16:3],2>5[16:3],
2<7[16:3],2-5[16:3],2-7[16:3],2b,
{8}1,1,7,7,3,3,5,5,
4,4,{4}5qq5[8:3]*pp5[8:3],{2}5,
{8}4,4,2,2,8,8,6,6,
4,4,{4}2-4[8:1]*-5[8:1],2-8[8:1]*-7[8:1],2,
1-5[16:3],1/6-3[16:3],6/2>4[16:3],2/8qq1[8:3],
8,3,2/7,5/4,
A7h[4:1]/D7fh[4:1]/A6h[4:1],A2h[4:1]/D3fh[4:1]/A3h[4:1],E7fh[4:1]/E8h[4:1]/E6h[4:1],E3fh[4:1]/E2h[4:1]/E4h[4:1],
E5fh[1:1],{8}E8,E1,{4}E2,{8}E2,E1,
{4}E8,5/4,3h[4:3],{8}E8,E7,
{4}E6,E7fh[4:1],E3f/B2/B3,1h[4:1]/8h[4:1],
,4/5,6h[4:3],{8}E2,E3,
{4}E4,E3fh[4:1],E7f/B7/B6,8/1,
2/7,6/3,5/4,6/1pp6[2:1],
{2}5h[4:1],{4}7,8h[4:1],
2h[4:1],4h[4:1],6h[4:1],8h[4:1],
2h[1:1],8,7,6,
5b,6/3,7/2,8/1,
{8}1,2,8,3,{4}7-3[4:1],4h[4:1],
,3/6,2/7,1/8,
{8}8,7,1,6,2-6[4:1],3/1,{4}2,
3,5/4,7/1s5[2:1],6h[4:1],
,7,8h[4:1],2h[4:1],
{2}4h[2:1],6h[2:1],
8h[2:1],2h[4:1],
8b/4b,{8}6bx,3bx,7bx,2bx,
8bx,,,5bx/4bx,3bx/8bx,,,4bx/5bx,
{4}6bx/1bx,7bx/2bx,8bx/3bx,7bx/2bx,
6bx/3bx,8bx/1bx,5bx/4bx,7bx/2bx,
{1}1bx-4b[2:3]/8bx-5b[2:3],
{4},,,,,E7f/D7/A7/D8/A8/D1/A1/D2/A3/D3/A6/A2/E1/B1/B6/B8/B2/B3/B7/E8/E3f/E2/Cfh[8:1],
E
