&title=愛の残滓
&artist=藍月なくる
&first=0
&des=バカ犬
&lv_5=13+
&inote_5=(87)
{1},,4pp6z2qq8b[4:13]/5qq3s7pp1b[4:13],,,
{16},,,,,,,,,,,,3qq8[4:3],,,,7qq8[4:2],,,,,,,,,,,,,,6pp7[8:4],,2pp3[8:3],,,,,,,,,,,,
{12}A6,E6,A3,
{8}E4,E5,,3^1[16:3],4pp5[16:5],,,,
{48}D1h[16:1],,,,,,,,,,,,
{4},4w8b[6:1],,{128}2xb-8-3[2:1],,3xb,,4xb,,,,,,,,,,,,,,,,,,,,,,,,,,,,
{8}8,,3-7-4[2:1],,7,,4-6s2[8:5],,6v7-1b[8:3],,,,,,
3/7-1-6b[2:1],,
{8}1,,6-2-5b[2:1],,2,,5-3z7b[8:5],,3v2-8[8:3],,,,,,
1v2[16:2],,7v6[16:2],,3v4-2-5b[8:3],,5,,
8v7[16:2],,3v4[16:2],,6v5s1b[4:1],,3,,
2bs6[8:1],7b/3b,,,7bs3[8:1],2b/6b,,,
{32}18,,3,4,3,,25,,6,5,6,,47,,18,,2-5b[32:3],7-4[16:1],1,8,3,6,1,8,,,,,,,,,
{48}7h[8:1]/3,,,,,,{32}D6hf[8:1],,,,{48}8b,B8,C,,,,,,,,,,
{48}37,,,3h[8:1],,,{32}D5hf[8:1],,,,{48}8b,B8,C,,,,,,,7,,,
{48}7h[8:1]/3,,,,,,{32}D6hf[8:1],,,,{48}8b<2[48:7],B8,C,,,,,,,,,,
1,,,1h[16:3],,,,,,,,,8b,2x/7,3x/6,,,,,,,,,,
{48}2h[8:1]/6,,,,,,{32}D4hf[8:1],,,,{48}1b,B1,C,,,,,,,,,,
{48}62,,,6h[8:1],,,{32}D5hf[8:1],,,,{48}1b,B1,C,,,,,,,2,,,
{48}2h[8:1]/6,,,,,,{32}D4hf[8:1],,,,{48}1b>8[48:9],B1,C,,,,,,,,,,
6,,,6h[16:3],,,,,,,,,2bqq2[8:1],3/7x^5[32:2],4/8x,,,,,,,,,,
{48},,,,,,{32}D5hf[8:1],,,,{48}1b,B8,E7,,,,,,,,,,
{48}26,,,6h[8:1],,,{32}D5hf[8:1],,,,{48}8b,B1,E3,,,,,,,3,,,
{48}7/3h[8:1],,,,,,{32}D5hf[8:1],,,,{48}1b>7[48:7],B1,C,,,,,,,,,,
8,,,8h[16:3],,,,,,,,,1b,7x/2,6x/3,,,,,,,,,,
{48}2h[8:1]/7,,,,,,{32}D1hf[8:1],,,,{48}2b,3,4,,,,,,,,,,
{48}83,,,8h[8:1],,,{32}D2hf[8:1],,,,{48}7b,6,5,,,,,,,6,,,
{48}6/1h[8:1],,,,,,{32}D8hf[8:1],,,,{48}2bv3-5b[8:1],3,4,,,,,,,,,,
6<3[8:1],,,6,,,,,,,,,{48}4h[8:1],,,,,,,,,,,,
{16}35,46,,8x^5[16:1]/C,,2^5[16:1],1,8x,,2x,,{48}7,3,7,{12}3h[12:1],4h[12:1],5h[12:1],
{16}6-1[16:1],7,8,2b,,4,3-8[16:1],2,1,7b,E6,E5,E4,B2,C,B7,
{16},,E1f/E2h[16:3],,,E3f/E8h[16:3],,,E7f/E4h[16:3],,,E5f/E6h[16:3],,,4x>5[8:3],,
{16},,,,,,,,,,,,,,,,
{16}D1,,,,D2,,,,D3,,,,D4,,,,
{16}D5,,,,D6,,,,D7,,,,D8,,,,
{16}D1/E1/Chf[4:7],,,,D2/E2,,,,D3/E3,,,,D4/E4,,,,
{16}D5/E5,,,,D6/E6,,,,D7/E7,,,,D8/E8,,,,
{16}2h[8:1]/4h[16:1],,4h[16:1],3h[8:1],4h[16:1],,5h[8:1]/4h[16:1],,4h[16:1],6h[8:1],4h[16:1],,7,8,3,4,
{16}7h[8:1]/5h[16:1],,5h[16:1],6h[8:1],5h[16:1],,4h[8:1]/5h[16:1],,5h[16:1],3h[8:1],5h[16:1],,2,1,6,5,
{8}2bs6b[8:1],7b/3b,,,7bs3b[8:1],2b/6b,,,
{32}18,,3,4,3,,25,,6,5,6,,47,,18,,
2,6,2,6,4,8,4,8,
{48}E4,E3,E2,E8,E7,E6,
D4,D3,D2,D8,D7,D6,
{48}D5/D1f,,,,,,1xb-5[16:1]/8x,2,3,,,,{48}7,,,7,,,{48}1b/6,,,,,,
{48}6,,,6,,,1b-5[16:1]/8,2,3,,,,{48}7,,,7,,,{48}1b/6,,,,,,
{48}6/4h[8:1],,,6,,,8b,1,2,,,,{48}5/7h[8:1],,,5,,,2b,3,4,,,,
{48}6/5h[8:1],,,6,,,8bw4b[16:1],1,2,,,,17,,,17,,,8b,,,,,,
{48}D7/D3f,,,,,,8xb-4[16:1]/1x,7,6,,,,{48}2,,,2,,,{48}8b/3,,,,,,
{48}3,,,3,,,8b-4[16:1]/1,7,6,,,,{48}2,,,2,,,{48}8b/3,,,,,,
{48}3/5h[8:1],,,3,,,1b,8,7,,,,{48}4/2h[8:1],,,4,,,7b,6,5,,,,
{48}3/4h[8:1],,,3,,,1bw5[16:1],8,7,,,,82,,,82,,,1b,,,,,,
{32}2,8,2,8,{48}7b/3,,,,,,{48}6/2-8[16:1],,,{32}3,4,{48}3b-5[16:1],,,8,,,
{48}62,,,6,,,3b/7,,,,,,{48}8-4[16:1],,,{32}7,5,{48}7b,,,1,,,
{48}28,,,,,,{48}2b/6,,,,,,{48}3/7-1[16:1],,,{32}6,5,{48}6b-4[16:1],,,1,,,
{48}37,,,3,,,6b/2,,,,,,{32}8w4[16:1],,
{48}1x/7x,2x/6x,3x/5x,4xb,,,,,,
{32}Cf,,,,
{32}6b-4[16:1]/2,,,,{32}7,3,7,3,6b/2x-5[16:1],,,,1,6,1,6,
2b/7x-3[16:1],,,,{32}8,3,8,3,{48}7b/2x,,,,,,
{32}1,,28,,
3b,7,3,6,3x,5,3,4,2b,6,2,5,2x,4,2,3,
{64}1b,8,7,6,5,4,3,2,1bq3^4-8[4:15],8,7,6,5q7^8-4b[16:59],4,3,2,,,,,,,,,
{48},,,,,,,,,,,,,,,,,,,,,,,,,,,,,,,,,,,,,,,,,,,,,,,,,,,,,,,,,,,,,,,,,,,,,,,,,,,,,,,,,,,,,,,,,,,,,,,,,,,,,,,,,,,,,,,,,,,,,,,,,,,,,,,,,,,,,,,,,,,,,,,,,,,,,,,,,,,,,,,,,,,,,,,,,,,,,,,,,,,,,,,,,,,,,,,,2q4b[2:3]/6q8[2:3],,,,,,,,,,,,,,,,,,,,,,,,,,,,,,,,,,,,,,,,,,,,,,,,,,,,,,,,,,,,,,,,,,,,,,,,,,,,,,,,,,,,,,,,,,,D5,,,,,,,,,,,,,,,,,D1,,,,,,,,,,,,,,,,A4,,,,,,,,,,,A8,,,,,,,,,D4,,,,,,,D8,,,,,,,A3,,,,,,A7,,,,,E3,,,,E7,,,,E2,,,E6,,,E1,,,E5,,B8,,B4,,Ch[16:3]
,,,,,,,,,,,,,,,,,,,,,,,,
E
&inote_6=
