&title=TECHNOPHOBIA
&artist=BEMANI Sound Team "HuΣeR"
&first=0
&des=アメノサグメ
&lv_5=14
&inote_5=(152)
{1},
{16}2bx/6h[16:3],,5bx,4bx,3bx/7h[16:3],,6bx,5bx,
4bx/8,8,,17,1-5b[10:1]/7-3b[10:1],,26,,{64}B8f/D8/D1,B6,B2,B4,D5,D4,,,{16},,{4},,,
{16}A8,E1,,,A7,B7,,,A6,E6,,,A7,B7,,,
A8,E1,,,A7,B7,,,A6,E6,,,A7,B7,,,
A8,E1,3xqq4b[8:3],,A7,B7,,,A6,E6,,,A7f/E7/E8,,,,
{16}21,,3,4,3,,3,,B7/Ch[4:1]/3,,3,,3,,3,,
43,,2,1,2,,2,,B6/Ch[4:1]/2,,2,,2,,2,,
21,,3,4,3,,3,,B7/Ch[4:1]/3,,3,,3,,3,,
8xh[8:1]/4xh[8:1],,,,2-6b[10:1],2,2,2,{64}2b,Cf,,,{16},,,{8},,
{16}7h[16:1],8h[16:1],5h[16:1],4h[16:1],6h[16:1],3h[16:1],5h[16:1],4h[16:1],
7-3[10:1],8h[16:1],6h[16:1],1h[16:1],7x,,2x,2x,
8h[16:1],1h[16:1],6h[16:1],5h[16:1],7h[16:1],4h[16:1],6h[16:1],5h[16:1],
8-4[10:1],1h[16:1],7h[16:1],2h[16:1],8x,,1x,1x,
7h[16:1],8h[16:1],5h[16:1],4h[16:1],6h[16:1],3h[16:1],5h[16:1],4h[16:1],
7h[16:1],8h[16:1],6h[16:1],1h[16:1],4h[16:1],3h[16:1],5h[16:1],2h[16:1],
8h[16:1],1h[16:1],6h[16:1],5h[16:1],7h[16:1],2h[16:1],4h[16:1],3h[16:1],
7-3[10:1],1h[16:1],6h[16:1],4h[16:1],7x,,2x,2x,
6h[16:1],5h[16:1],8h[16:1],1h[16:1],7h[16:1],2h[16:1],8h[16:1],1h[16:1],
6-2[10:1],5h[16:1],7h[16:1],4h[16:1],6x,,3x,3x,
5h[16:1],4h[16:1],7h[16:1],8h[16:1],6h[16:1],1h[16:1],7h[16:1],8h[16:1],
5-1[10:1],4h[16:1],6h[16:1],3h[16:1],5x,,4x,4x,
6h[16:1],5h[16:1],8h[16:1],1h[16:1],7h[16:1],2h[16:1],8h[16:1],1h[16:1],
6h[16:1],5h[16:1],7h[16:1],4h[16:1],1-5[10:1],2h[16:1],8h[16:1],3h[16:5],
{4}1b,{16}4x<2[4:1],2x,,,{4}Chf[8:3]/B3/B4,,
{8}1/8,2,34,2,{16}2x/5x-1[10:1],36,{8}47,8,8,
82,3,24,1,{16}6x>1[16:3]/1x,27,{8}3/8h[8:1],6x,{24}7x,6x,5x,4bx,,,{8}
7,18,2,{16}2x/5x-1[10:1],36,{8}47,8,8,
82,3,{16}8x/3x,72,61,,2x<5[16:3]/5x,63,{8}7/4h[8:1],2x,{24}3x,2x,1x,8bx,,,{8}
6,75,4,{16}3x/8x-4[10:1],27,{8}6/1,5,5,
45,3,24,5,{16}6x/1x-5[10:1],72,{8}3/8,4,4,
45,6,75,3,24,8,1/7-3[10:1],,7b/2b-6[10:1],,2b/5b<4b[32:7],,
{32}E5,E6,E7,E8,E1,E2,E3,E4,{8}Cf/E5,,
1b/8b,{16}6,5,{8}7-4[10:1],8,7/1-6[10:1],2h[8:1],1,3,
45,{16}3,4,{8}2-6[10:1],1,2/8-4[10:1],7h[8:1],8,6,
{8}3>8[8:1]/5,8<5b[8:1],3,5,{32}D4,D3,D2,D1,D8,D7,D6,D5,
{8}1x,1xh[8:1],5<8[8:1],8>3b[8:1],5,3,{32}5x,6,7,8,1,2,3,4,{4}5/Cf,
{8}81,{16}3,4,{8}2-5[10:1],1,2/8-3[10:1],7h[8:1],8,6,
54,{16}6,5,{8}7-3[10:1],8,7/1-5[10:1],2h[8:1],1,3,
{8}6<1[8:1]/4,1>4b[8:1],6,4,{32}D6,D7,D8,D1,D2,D3,D4,D5,
{8}8x-4b[10:1],8x-2b[10:1],8x-5[10:1],8x-3[10:1],8x-6b[10:1],8x-4b[10:1],
8bx,8bx,,,
{4}1xh[16:3]/7xh[16:3],8xh[16:3]/2xh[16:3],{16}1x,1,1,1,1xv4[8:1]*v6b[8:1],1,1,1,
{4}1bx,7xh[16:3]/5xh[16:3],{16}6x,6,6,6,6xv1[8:1]*v3b[8:1],6,6,6,
{4}6bx,2xh[16:3]/4xh[16:3],{16}3x,3,3,3,
3x-1-4-8-5-7[256:155]*-1-4-8-5-7-5b[64:45]*-1-3b[128:25]*-1-4-8-4b[64:33],3,3,3,
{1}3bx,
{8}4qq1b[8:3],4,5,6,7<4[16:3],7,2x,2x,
1qq6b[8:3],1,2,3,4>1[16:3],4,7x,7x,
6qq3b[8:3],6,7,8,1,1,7x/2x,,
{24}1bx/8bx,2,3,5,6,7,2bx,3,4,6,7,8,
3bx,4,5,7,8,1,{4}2b/Cf,
{8}5b-1[10:1]/4b,6,7/5-3[10:1],6,1<6[8:1],1,5,5,
4-8[10:1]/5,3,2/4-6[10:1],3,8>3[8:1],8,4,4,
5-1[10:1]/4,6,7/5-3[10:1],6,1,1,{16}1x,5x,1x,5x,
{24}1bx,2x,3x,{16}6,6h[48:5],{24}2bx,3x,4x,{16}7,7h[48:5],
{24}3bx,4x,5x,{16}8,8h[48:5],{48}D5/B5,D6,B6,D7,B7,D8,B8,D1,B1,D2,B2,D3,
{8}3bx/4bx,{16}6,5,{8}7-4[10:1],18,{16}3xv8b[8:1],2x,{8}1x,6,6,
{8}65,{16}3,4,{8}2-5[10:1],81,{16}6xv1b[8:1],7x,{8}8x,3,3,
{8}34,{16}6,5,{8}7-2[10:1],18,{16}3xv6b[10:1],4x,{8}5x,8,8,
{32}8bx/5bx,4/7x,3/6x,2/5x,,,,,1bx/4bx,5/2x,6/3x,7/4x,,,,,
8bx/1bxs5[8:1],7/2v5b[32:3],36,45,,,,,{4},
{16}3b/7b,,,2,1-5[10:1],3,{8}7-3[10:1],1,7,8w4b[10:1],26,
{16}8b,,,7,8-4[10:1],6,{8}2-6[10:1],8,2,1,37,
6<1[8:1]/2,1>4b[8:1],6,4,{32}6x,7,8,1,2,3,4,5,7x,8,1,2,3,4,5,6,
{8}3x>8[8:1]/7x,8<5b[8:1],3,5,{32}3x,2,1,8,7x/3x,2x/6x,1x/5x,4x/8x,{4}3bx/7bx,
{8}1b/8b,{16}2,2,4x-1[10:1],3,3,,8x/4x,,7,7,5x-8[10:1],6,6,,1x/5x,,
2,2,4x-1b[10:1],3,3,,8x/4x,,{32}8bx,7bx,6bx,5bx,{8}4bx,18,
27,{48}D3/B3,D4,B4,D5,B5,D6,{16}1b,,{48}D7/B6,D6,B5,D5,B4,D4,{16}8b,,
{48}D3/B3,D4,B4,D5,B5,D6,{16}1b,,
{8}3x/7x,
{32}7bx/3bx,62,51,48,,,,,6bx/2bx,73,84,15,,,,,
1bx-5b[10:1]/5bx,48,73,62,5x/1x,4x/8x,7x/3x,6x/2x,
{4}Cf,
{8}1xh[8:1],{32}B8,C,B4,,{8}2xh[8:1],{32}E7,E6,A5,,
{8}3xh[8:1],{32}C,B4,A4,,{8}2xh[8:1],{32}A7,E7,E6,,
{8}1xh[8:1],{32}B8,C,B4,,{8}2xh[8:1],{32}E7,E6,A5,,
{8}3,24,6,75,
{8}8h[8:1],{32}B2,C,B6,,{8}1h[8:1],{32}E4,E5,A5,,
{8}8h[8:1],{32}C,B6,A6,,{8}7h[8:1],{32}A3,E4,E5,,
{8}8h[8:1],{32}B2,C,B6,,{8}1h[8:1],{32}E4,E5,A5,,
{8}8,17,2b/6b,,
45,{16}3-8[10:1],4,{8}2,7-4[10:1],6,1,2,38,
74,{16}6-1[10:1],5,{8}7,2-5[10:1],3,8,7,61,
25,{16}3-6[10:1],4,{8}2,7,8,1,2h[8:1]/7h[8:1],,
{24}1bx/8bx,2,3,4,5,6,7bx/2bx,3,4,5,6,7,1bx/8bx,2,3,4qq5b[4:1],5,6pp5[228#8:3],
{8},B5f,
