&title=星の器 feat. らっぷびと
&artist=魂音泉
&first=0
&des=Moiyang -星を追いかけて-
&lv_5=13+
&inote_5=(128),,,
,,
{32}
,,,,,,4,5,
{16}
6/3,,3/6,,4,5,4,5,
{8}
4qq1[8:5],,8,,7,,6,,5pp8[8:5],,1,,2,,3,,
4qq1[8:5],,5,,7-4[8:1],,7,,5pp8[8:5],,4,,2-5[8:1],,2,,
1qq5[8:5],,2,,4-2[8:1],,4,,8pp4[8:5],,7,,5-7[8:1],,5,,
8h[4:1],,6,,1h[4:1],,3,,
2h[4:2]/7h[4:2],,,,,,5-7[8:1]/4,,
5/4-8[8:1],,4/2^7[8:1],,2,5,4-2[8:1],,
4/5-1[8:1],,5/7^2[8:1],,7,4,5-7[8:1],,
5/4-8[8:1],,4/2^7[8:1],,2,5,4-2[8:1],,
4/5-1[8:1],6,5/4-8[8:1],3,4,7,7-5[8:1],,
7/8-4[8:1],,8/3^6[8:1],,3,8,1-3[8:1],,
1/8-4[8:1],,8/6^3[8:1],,6,1,8-6[8:1],,
8/1-5[8:1],,1/3^6[8:1],,3,8,1-3[8:1],,
1/8-4[8:1],7,8/1-5[8:1],2,1/8,6,6/3,,
8-5[8:1],,5-8[8:1],,8-4[8:1],,2,,
1-4[8:1],,4-1[8:1],,1-5[8:1],,7,,
8-4[8:1]*V24[8:1],,8,,1-5[8:1]*V75[8:1],,1,,
7v2[8:1]/5v2[8:1],,,,2v7[8:1]/4v7[8:1],,,,
{16}
3h[4:1]/4,,,1,1h[4:1],,,5,5h[4:1],,,7,7h[4:1],,,,
5>1[4:1],,,,1<5[4:1],,,,5p1[8:2],,,,1,,,,
6h[4:1],,,8,8h[4:1],,,4,4h[4:1],,,2,2h[2:1],,,,
8h[2:1],,,,,,,,2-6[8:1],,,,2b,,,,
7/5p1[8:1],,,7,7,,,,2/8p4[8:1],,,2,2,,,,
3^6[8:1]/8,,,7,7,,,,6^3[8:1]/3,,,1,1-4[8:1],,,,
7/1,,8,,2/1-4[8:1],,,,7/1,,8,,2/1,,,,
2/1-4[8:1],,8,,7/1,,8,,2/1-5[8:1],,8,,7/1,,,,
2h[8:3],,1,,8,,7,,6h[8:3],,5,,4,,3-1[8:1],,
5,,3/6-8[8:1],,5,,3-1[8:1]/6,,4,,3/6-8[8:1],,5,,3/6,,
2,,1,,8,,7<7[8:5],,6h[4:2],,,,,,,,,,,,,,,,,,
3/6,,1b/8b,,,,
8-6[8:1],,1-5[8:1],1,8,,1,,8-4[8:1],,1-3[8:1],1,8,,1,,
4-8[8:1],,3-1[8:1],,4,,3,,7-5[8:1],,8-4[8:1],,7,,8,,
1^6[8:1]*^4[8:1],,,,1bw5[8:1],,,,1b,,,,3/7,,4p8[8:1]/8p4[8:1],,
,,4<4[8:4]/8,,,,4/8q4[8:2],,,,,,,,,,
{8}
7-5[8:1]/2-4[8:1],,7>3[8:2]/2,,3<7[4:1],,1-4[8:1],,1-6[8:1],,1/5w1[8:1],,,,
,4,3^8[4:1],,5,6,7^4[4:1],,8,1,2pp6[2:1]*qq6[2:1],,2,,,,,,
{16}
1b-3[8:1],,8-4[8:1],8,1,,8,,1-5[8:1],,8-6[8:1],8,1,,8,,
5-1[8:1],,6-8[8:1],,5,,6,,2-4[8:1],,1-5[8:1],,2,,1,,
8^3[8:1]*^5[8:1],,,,8w4[8:1],,,,8,,,,6/2,,5^8[8:1]/3^8[8:1],,
,,5pp4[8:3]/3qq4[8:3],,,,,,,,,,,,,,
{8}
1/7-3[8:1],,7/5p1[8:1],,5/8-4[8:1],,8/3-6[8:1],,3/1p5[8:1],,1/2v7[8:1],,2/6v1[8:1],,6/4,,
3qq4[8:3],,8,7,6q7[8:3],,3,2,1q4[2:1],,5-8[4:1],,,,,,
8z4[2:1],,2,,4<8[2:1],,3,,8q1[2:1],,4,,1^6[4:1],,3,,
2s6[2:1],,8,,6V41[2:1],,7,,1V37[2:1],,6,,7-3[4:1],,5,,
4-7[4:1],,3,,2>5[4:1],,1,,8q4[4:1],,7,,6v1[4:1],,5,,4V68[4:1],,8,,1,,2-7[8:1]/6-3[8:1],,2/6,,,,,,,1/8,
{16}
7b-3[8:1],,1q5[8:1],1,7,,1,,8v3[8:1],,2-6[8:1],2,8,,2,,4-1[8:1],,5-8[8:1],,4,,5,,1^4[8:1],,8^5[8:1],,1,,8,,4^1[8:1],,,,4b^7[8:1]/7,,,,4b/1b,,,,4,,5w1[8:1],,,,5bqq8[8:3]*pp2[8:3],
,,,,,,,,,,,2,,1-7[8:1]/6-2[8:1],,,,1/6>8[8:3],,,,2<6[4:1],,,,4qq2[8:1],,,,4pp6[8:1],,,,8-4[8:1]/4,,,,,,,,,,6,,
{8}
7^2[4:1],,5,4,3p6[4:1],,7,8,1-5[8:1],,1^4[4:1]/5^8[4:1],,,,,
2/7,
{16}
2-6[8:1],,8p4[8:1],8,2,,8,,1v6[8:1],,7-3[8:1],7,1,,2,,2-5[8:1],,6-2[8:1],,2,,6,,4-8[8:1],,7-4[8:1],,4,,7,,8^5[8:1],,,,3b^8[8:1]/8,,,,6b^3[8:1]/3b,,,,6,,8-4[8:1],,,,5qq5[8:3]*pp5[8:3],,
{4}
,,,
1-4[8:1]/6,1/4-7[8:1],4/7-2[8:1],7/2-5[8:1],2/5-1[8:1],5/1-4[8:1],1/4-7[8:1],
{8}
4/7,,5p7[4:1],,3,2,1>4[4:1],,5,6,7q1[2:1],,3q1[8:2],,,,
5-7[8:1],,
5/4-8[8:1],,4/2^7[8:1],,2,5,4-2[8:1],,
4/5-1[8:1],,5/7^2[8:1],,7,4,5-7[8:1],,
5/4-8[8:1],,4/2^7[8:1],,2,5,4-2[8:1],,
4/5-1[8:1],6,5/4-8[8:1],3,4,7,7-5[8:1],,
7/8-4[8:1],,8/3^6[8:1],,3,8,1-3[8:1],,
1/8-4[8:1],,8/6^3[8:1],,6,1,8-6[8:1],,
8/1-5[8:1],,1/3^6[8:1],,3,8,1-3[8:1],,
1/8-4[8:1],7,8/1-5[8:1],2,1/8,6,6-2[8:1]/3,,
1-4[8:1],,7-3[8:1],,1,8,8-5[8:1],,6-1[8:1],,2-6[8:1],,4,5,5-2[8:1],,
1-6[8:1],,5-8[8:1],,3,4,4-1[8:1],,7/4,8,7/4,6,7/4,1,1^6[8:1],,5^2[8:1],,1^6[8:1],,5,4,3^8[8:1],,7^4[8:1],,3^8[8:1],,7,6,5-8[8:1],,1-4[8:1],,5-8[8:1],,1,2,3,,
3-8[8:1]/8-3[8:1],,8V25[1:1]/3V15[1:1],,
E
