&title=白金ディスコ
&artist=井口裕香
&first=0.29
&des=绿风 犬四郎
&lv_6=11+
&inote_6=(117)
{1},
{4}5/4-8[8:1],,3/4-8[8:1],,
{4}5/4-8[8:1],,3/4-8[8:1],,
{8}6/4-8[8:1],,24,,6/4-8[8:1],,24,,
{16}6h[8:1]/4,,3,4,2h[8:1],,6,5,7h[8:1],,8,,16,,2,,
{8}3^6[8:1],6,7p4[4:1],,3h[4:1],,,,
24,3,5/7<1[16:5],7,8,,,,
{8}3/4,3,45,4,
{8}6/5,6,7/1qq5[16:6],8,
{16}3h[4:2]/1,,,,,,,,,,3,,82,,7,,
{8}6^3[8:1],3,2q5[4:1],,6h[4:1],,,,
75,6,4/2>8[16:5],2,1,,,,
{8}6/5,6,54,5,
{8}3/4,3,2/8<1[16:8],1,
{16}6h[4:2]/8,,,,,,,,,,,,,,3,4,
{16}3h[8:1],,5,4,,,6,5,6h[8:1],,4,5,,,2,4,
{16}2h[8:1],,4,3,,,7,5,7h[8:1],,5,6,,,1,,
1^4[4:1],,,,4^7[4:1],,,,7^2[4:1],,,,2,,,,
5h[8:1],,3,,4h[8:1],,6,,48,,3,4,3,,6,5,
{16}7h[8:1],,4,6,,,3,4,2h[8:1],,5,3,,,7,5,
{16}6h[8:1],,4,5,,,2,4,3h[8:1],,5,4,,,8,,
8p4[8:1]/3,,,,2qq5[8:3],,,,5,,5,,6,,6pp5[8:3],,
4qq5[8:2],,,,,,,,,,1,8,1,,36,,
{8}4h[4:1],1,6h[4:1],1,4h[4:1],1,6h[4:1],1,
4h[4:1],1,6h[4:1],1,2-6[8:1],,6,,
8<4[8:1]/4q8[8:1],,,,1-5[8:1]/5,,,,3^8[8:1]/7^4[8:1],,,,
{8}5-1[8:1]/1,,,,
{8}3h[4:1],8,5h[4:1],8,3h[4:1],8,5h[4:1],8,
3h[4:1],8,5h[4:1],8,1-5[8:1],,5,,
{8}6-8[8:1]/4-8[8:1],64,64,,3-1[8:1]/5-1[8:1],35,35,,
{16}8b-6[8:1],,,,8b-2[8:1],,,,8b-4[8:1],,,,8bpp3[4:3]*qq5[4:3],,,,
{1}8b,
{16}2b/6b,,4b/8b,,2b-5[8:1]/6b-1[8:1],,4b/8b,,
{8}6b/2b,,4,4h[8:1],5-8[8:1],6,1-4[8:1],2,
{8}4-1[8:1],,5,5h[8:1],4-1[8:1],3,8-5[8:1],7,5-8[8:1],,4,3,
{8}2^5[8:1]/8,,2/6-3[8:1],7,8-4[8:1],,5p4[4:2]*<4[4:2]/8,,
{16}5,,,,,,,,,,,,
{8}3,3h[8:1],4-1[8:1],5,6-3[8:1],6,
{8}2-5[8:1],,6,6h[8:1],5-8[8:1],4,3-6[8:1],3,7-4[8:1],,3,2,
{8}1/7^4[8:1],,7/3-6[8:1],2,1-4[8:1],,7h[4:1]/1,,
{16}5,6,4,7,3<2[8:2],8,2,1,
{8}3b,,,7-4[8:1]/3-8[8:1],
{8}73,,,1-4[8:1]/5-8[8:1],
{8}1/5,,,3h[8:1],
{8}5h[8:1],4h[8:1],6h[8:1],5p1[8:1],5,7b,7b,6-1[8:1]/2-5[8:1],
{8}62,,,4-1[8:1]/8-5[8:1],
{8}4/8,,,6h[8:1],
{16}4h[8:1],,5,3,4,,4q8[8:1],,4,,2b,,2b,,7-4[8:1]/3-8[8:1],,
{8}73,,,1-4[8:1]/5-8[8:1],
{8}1/5,,,3h[8:1],
{8}8qq8[4:1],4,4^1[8:1],,4,,7h[4:1],,
{8}8-4[8:1],1,8b/2h[4:1],,
{8}1-5[8:1],8,1b/7h[4:1],,
{8}3,,6-3[8:1]/2-7[8:1],,6b/2b,,,,
{16}4h[4:1],,,,1b,,,,5h[4:1],,,,8b,,,,7b/3b,,,,6b-3[8:1]/2b-7[8:1],,,,6b/2b,,,,
