&title=デッドマンズバラッド[SD]
&artist=cosMo@暴走P
&first=0
&des=还是塞少了 wholebpm=300 des_6=还是塞少了
&lv_7=狂
&inote_7=(300){1},
{4},,2-4[16:1],2b,
{12}5,4,5,4,5,4,5,4,5,4,5,,2,1,2,1,2,1,2,1,2,1,2,,7,8,7,8,7,8,7,8,7,8,7,,4,6,4,6,4,6,4,6,4,6,4,6,
{4}7b-1[8:1],3b-5[8:1],6b-2[8:1],1b-4[8:1],5b-8[8:1],3b-6[8:1],7b-3[8:1],,
{16}1,2,3,4,5,6,7,8,{24}1,2,3,4,5,6,7,8,1,2,3,4,5,6,7,8,{32}1b,2,3,4,5,6,7,8,1b,2,3,4,5,6,7,8,1b,,,,,,,,,,
{4}1-4[8:1]/8,8/1>3[8:1],1-4[8:1]/7,1>3[8:1]/8,{16}1-4[8:1]/8,7,6,5,
{4}1>3[8:1]/8,7/1-4[8:1],8/1>3[8:1],1-4[8:1]/8,1>3[8:1]/7,1-4[8:1]/8,1>3[8:1]/8,{16}1-4[8:1]/8,7,6,5,
{4}1>3[8:1]/8,1-4[8:1],8/1,
{32},
{8}8-5[600#4:1],8,1-3[600#4:1],1,7-4[600#4:1],7,1h[32:1],1h[32:1],
{24}1/5b,2,3,4,5,6,7,8,1/5b,2,3,4,5,6,7,8,1/5b,2,3,4,5,6,7,8,1/5bw1[50#28:1],,,,,,
{4},5b-8[600#8:1]*-8[600#8:1],,5b-2[600#8:1]*-2[600#8:1],,5b-1[600#8:1],,
{8}7-4[600#4:1],7,1-4[600#4:1],1,7-4[600#4:1],7,1-4[600#4:1],1,7-4[600#4:1],7,1-4[600#4:1],1,{16}5,6,7,8,4,3,2,1,8-5[600#4:1],,8,,1,2,3,4,5,6,7,8,1,2,3,4,8,7,6,5,1,2,3,4,8b,,,,,,,,
{8}2-5[600#4:1],2,8-5[600#4:1],8,2-5[600#4:1],2,8-5[600#4:1],8,2-5[600#4:1],2,8-5[600#4:1],8,{16}1,2,3,4,8,7,6,5,1,2,3,4,5b,,,,6b,,,,7b,,,,8b,2,1,2,1,2,1,2,1,2,1,2-5[8:1],1,2,1,2b,
{1},,,
{4}1b<6[8:1]*>4[8:1],1bw5[8:1],1b,,
{8}5,4,5,4,5,3,5,3,5,2,5,2,5,1,5,1,4,5,4,5,4,6,4,6,4,7,4,7,4,8,4,8,6,3,6,3,6,2,6,2,6,2,6,1,6,1,8b-4[8:1],,2b-5[8:1],,7b-3[8:1],,1b-4[8:1],,6b-3[8:1],,2b-7[8:1],,,,,,,,
{8}5,4,5,1,5,4,5,1,5,4,5,1,{16}5,4,5,4,5,,3,,{8}2,5,2,7,2,5,2,7,2,5,2,7,2,{16}7,8,7,8,7,,4,,{8}5,4,5,4,5,{12}4,5,4,5,4,{16}5,4,5,4,5,4,5,4,5,
{4},8b-5[8:1]/2b-4[8:1],,7b-5[8:1]/1b-4[8:1],,8bv5[8:1]/2bv5[8:1]
,,,,
{1}6pp5[2:3]/2h[4:7],,3qq4[2:3]/7h[4:7],,7qq8[2:3]/3h[4:7],,1-5[2:3]*-5[2:3],,
{4}1-4[8:1]/5,5,5/1-4[8:1],5,5/1-6[8:1],5,1-6[8:1]/5,5,{16}4,5,4,5,4,,,,
{4}7-5[8:1]/3,3,8-5[8:1]/3,3,7-5[8:1]/3,3,8-5[8:1]/3,3,7-4[8:1]/3,3,8-4[8:1]/3,3,7-4[8:1]/3,3,{16}2,1,2,1,2,,,,8-5[8:1]/1,,,,8/1,,,,3,4,3,4,3,,,,5-8[8:1]/4,,,,5/4,,,,
{4}1-4[8:1]/6,6,1-4[8:1]/6,6,1-3[8:1]/6,6,1>3[8:1]/6,6,{16}4,5,4,5,4,,,,
{4}6/3-1[8:1],6,6/3-8[8:1],6,6/3-8[8:1],6,6/3>8[8:1],6,5/3-1[8:1],5,3-8[8:1]/5,6,6/3-1[8:1],6,{16}8,7,8,7,8,,,,7,8,7,8,7,,,,
{16}8b/7b,,8b/7b,,1b/6b,2b/5b,3b/4b,,
{8},,,,1-4[8:1],8,1,8,1-4[8:1],7,1,7,1-4[8:1],6,1,6,1-4[8:1],6,1,6,1-4[8:1],5,1,5,1-4[8:1],5,1,6,5,6,{16}1,8,1,8,1,,,,1,,,,
{8}7-4[600#4:1],7,1-4[600#4:1],1,8-5[600#4:1],8,2-5[600#4:1],2,8-4[600#4:1],8,2-4[600#4:1],2,{16}8,7,6,5,1,2,3,4,5,6,7,8,1,2,3,4,7,6,5,4/8b,{8},7b,1b,6b,2b,5b,3b/4b,,,,
{8}8-5[8:1],1,8,1,8-5[8:1],2,8,2,8-5[8:1],3,8,3,8-5[8:1],3,8,3,8-5[8:1],4,8,4,8-6[8:1],4,8,4,5,4,{16}3,5,3,5,3,,,,3,,,,
{8}3-8[600#4:1],3,6<1[600#4:1],6,4-1[600#4:1],4,5-8[600#4:1],5,3>8[600#4:1],3,{16}7,6,5,4,8,1,2,3,4,8,7,6,1b,2,3,4,5,6,7,8,{24}1,2,3,4,5,6,7,8b,,,,,{4}3bq8[8:1]/5bp8[8:1],,,,
{8}2,5,2,5,3,6,3,6,4,7,4,7,4,7,,,{16}8,7,6,5,4,3,2,1,8,7,6,5,4,3,2,1,8,7,6,5,4,3,2,1,8b/4b,,,,,,,,
{8}7,4,7,4,6,3,6,3,5,2,5,2,5,2,,,{16}1,2,3,4,5,6,7,8,1,2,3,4,5,6,7,8,1,2,3,4,5,6,7,8,1h[4:1]/5b,,,,5b,,,,
{8}3,1,3,1,2,8,2,8,1,7,1,7,1,7,,,{16}1,2,3,4,8,7,6,5,4,3,2,1,8,7,6,5,1h[32:1],2h[32:1],3h[32:1],4h[32:1],1h[32:1],2h[32:1],3h[32:1],4h[32:1],1h[32:1],2h[32:1],3h[32:1],4h[32:1],1b,,,,
{8}6,4,6,4,5,3,5,3,4,2,4,2,4,2,,,5s1[1:2],,,,,,,,{16}4,5,4,5,4,5,4,5,4,5,4,5,4,5,4,5-1[8:1],4,5,4,5b,,,,,,,,,,,,,
{1},3-6[600#4:1]*-6[600#4:1]`3!qq7[2:3],8b-4[8:1],3-7[600#4:1]*-7[600#4:1]`3!pp8[2:3],6b-2[8:1],3-6[600#4:1]*-6[600#4:1]`3!s7[2:3],5bV31[8:1],3-7[600#4:1]*-7[600#4:1]`3!qq6[2:3],4b-8[8:1],
{4}3/5,3/5,3/5,3/5,6/4,6/4,6/4,6/4,5/7,5/7,6/8,6/8,7/1,7/1,8/2,8/2,
{16}1,2,3,4,5,6,7,8,1,2,3,4,8,7,6,5,2,3,4,5,7,6,5,4,3/7,2,1,8,7/3,6,5,4,3b/7b,,,,
{1},
{4},,8-6[8:1],2-4[8:1],5-1[8:1],1-5[8:1],5-2[8:1],2-6[8:1],,,{16}1/7,2/6,3/5,,
{4}4-2[8:1],6-8[8:1],5-1[8:1],1,{32}8b,7,6,5,,,,,8b,7,6,5,,,,,8b,7,6,5,,,,,8b,7,6,5,,,,,
{4}2-4[8:1],8-6[8:1],1-5[8:1],5-1[8:1],1-6[8:1],6-8[8:1],8-4[8:1],,{16}5,3,5,3,{4}5-1[8:1],1-5[8:1],,{24}1,2,3,4,5,6,7,8,1,2,3,4,5,6,7,8,1b,,
{4},3-1[8:1],5-7[8:1],4-8[8:1],8-4[8:1],4-1[8:1],6,,{16}5/3,6/2,1/7,,8-4[8:1],,,,{4}4-8[8:1],8-5[8:1],5,{32}1b,2,3,4,,,,,1b,2,3,4,,,,,1b,2,3,4,,,,,1b,2,3,4,,,,,
{4}6-8[8:1],4-2[8:1],1-5[8:1],5-1[8:1],1-4[8:1],4-7[8:1],7-1[8:1],,{16}2,8,2,8,{4}2-5[8:1],5-2[8:1],,{24}8,7,6,5,4,3,2,1,8,7,6,5,4,3,2,1,8b,,,,,,,,
{8}7-1[8:1],1-5[8:1],7,2,2h[8:1],,2h[8:1],,7-5[8:1],5-1[8:1],7,2,2h[8:1],,2h[8:1],,6-1[8:1],1-5[8:1],6,3,3h[8:1],,3h[8:1],,6-2[8:1],2-5[8:1],6,3,3h[8:1],,3h[8:1],,
{8}8,7,6/2h[32:1],5,4/8h[32:1],3,2/6h[32:1],1,8/4h[32:1],7,6/2h[32:1],5,4/8h[32:1],3,2/6h[32:1],1,8/4b,7,6/2h[32:1],5,4/8b,3,2/6h[32:1],1,
{16}8/4b,7/3,6/2,5/1,4/8,3/7,,,
{8},,,,3-8[8:1],8V25[8:1],3,7,7h[8:1],,7h[8:1],,7-4[8:1],4V61[8:1],7,2,2h[8:1],,2h[8:1],,2-5[8:1],5V38[8:1],2,6,6h[8:1],,6h[8:1],,
{8}6/4,5/3,4/2,3/5,6/4,7/5,6/4,5/3,
{16}8h[32:1]/2,7,6,5,4/7h[32:1],6,5,4,3/6h[32:1],5,4,3,2/5h[32:1],4,3,2,1,8,7,6,5,4,3,2,1/6h[32:1],5,4,3,2,1,8,7,6/1b,2,3,4,5,6,7,8,1,2,3,4,5,6,7,8,{24}1b,2,3,4,5,6,7,8,1h[32:1],2h[32:1],3h[32:1],4h[32:1],5h[32:1],6h[32:1],7h[32:1],8h[32:1],1h[32:1],2h[32:1],3h[32:1],4h[32:1],5h[32:1],6h[32:1],7h[32:1],8h[32:1],1bw5[18.7#64:1]*-5[18.7#64:1],,,,,,,,,,,,,,,,,,,,,,,,
{1},,,1b,,,,
{24}1h[32:1],2h[32:1],3h[32:1],{16}8,7,6,5,,,{24}8h[32:1],1h[32:1],2h[32:1],{16}7,6,5,4,,,{24}1h[32:1],2h[32:1],3h[32:1],{16}8,7,6,5,,,{24}2h[32:1],3h[32:1],4h[32:1],{16}1,8,7,6,,,
{16}2,1,2,1,2,1,2,1,{24}2,3,4,1,8,7,2,3,4,1,8,7,2b-6[8:1],,,,,,,,,,,,,,,,,,,
{24},,,,,8h[32:1],7h[32:1],6h[32:1],{16}1,2,3,4,,,{24}7h[32:1],6h[32:1],5h[32:1],{16}8,1,2,3,,,{24}8h[32:1],7h[32:1],6h[32:1],{16}1,2,3,4,,,{24}7h[32:1],6h[32:1],5h[32:1],{16}8,1,2,3,,
{16}8,7,6,1,2,3,7,6,5,2,3,4,8,7,6,1,2,3b-7[8:1],,,,
{4},,,
{16}3,4,3,4,3,4,3,4,3,4,3,4,3,4,3,,2,5,2,5,2,5,2,5,2,5,2,5,2,5,2,,1,6,1,6,1,6,1,6,1,2,3,4,5,6,7,8,1b-5[8:1],,,,1b<6[8:1]*>4[8:1],,,,1bw5[8:1],,,,1b,,,,
{8}7-4[600#4:1],7,1-4[600#4:1],1,8-5[600#4:1],8,2-5[600#4:1],2,6-1[600#4:1],6,4-1[600#4:1],4,5-8[600#4:1],5,,,
{1},1-5[75#32:1],
{24}1b,8,7,6,,4,3,2,1,8,7,6,5,4,3,2,1,8,7,6,5,4,3,2,1,8,7,6,5,4,3,2,1,8,7,6,5,4,3,2,1,8h[32:1],7h[32:1],6h[32:1],5h[32:1],4h[32:1],3h[32:1],2h[32:1],1h[32:1],8h[32:1],7h[32:1],6h[32:1],5h[32:1],4h[32:1],3h[32:1],2h[32:1],1h[32:1],8h[32:1],7h[32:1],6h[32:1],5h[32:1],4h[32:1],3h[32:1],2h[32:1],1h[32:1],8h[32:1],7h[32:1],6h[32:1],5h[32:1],4h[32:1],3h[32:1],2h[32:1],1h[32:1],8h[32:1],7h[32:1],6h[32:1],5h[32:1],4h[32:1],3h[32:1],2h[32:1],1h[32:1],,,,
{16},,,,,,,,5,6,5,6,5,6,4,7,4,7,4,7,3,8,3,8,3,8,2,1,2,1,
{24}2,3,4,5,6,7,8,1,2,3,4,5,6,7,8,
{4}1b,2b,7b,3b,6b,4b,5b,3b,,{8}2b,8b,2b,7b,E
