&title=おやすみなさん!
&artist=国木田 花丸 (CV:高槻 かなこ)
&first=0.55
&des=夜梨
&freemsg=
&bpm=103
&amsg_first=
&des_1=夜梨
&des_2=夜梨
&des_3=夜梨
&des_4=夜梨
&des_5=夜梨
&demo_seek=64
&demo_len=30
&lv_2=3
&lv_3=9
&lv_4=11+
&lv_5=13+
&inote_2=(82){16},,,,,
,,,,,,,
,,,,
,,,,,,,,,,,,,,,,
,,,,,,,,,,,,,,,,
,,,,,,,,{32},,,,,,,,,,,,,,,,,,{16}
,,,,,,,,,,,,,,,
,,,,,,,,,,,,,,,,
(103)
45,,,,,,,,45,,,,,,,,
45,,,,,,,,36,,,,27,,,,
1,,,,2,,,,3,,,,4,,,,
5,,,,6,,,,7,,,,8,,,,
1h[4:1],,,,,,,,2h[4:1],,,,,,,,
3h[4:1],,,,,,,,4h[4:1],,,,,,,,
5-1[4:2],,,,,,,,,,,,,,,,
4-8[4:2],,,,,,,,,,,,,,,,
8h[4:1],,,,,,,,7h[4:1],,,,,,,,
6h[4:1],,,,,,,,5h[4:1],,,,,,,,
4>1[4:2],,,,,,,,,,,,,,,,
5<8[4:2],,,,,,,,,,,,,,,,
1,,,,1,,,,2,,,,2,,,,
3,,,,3,,,,4,,,,4,,,,
5,,,,5,,,,6,,,,6,,,,
7,,,,7,,,,8,,,,8,,,,
18,,,,1,,,,27,,,,2,,,,
36,,,,3,,,,45,,,,4,,,,
1,,,,3,,,,5,,,,7,,,,
1>8[4:2],,,,,,,,,,,,,,,,
1h[4:1],,,,,,,,2h[4:1],,,,,,,,
3b,,,,4b,,,,5,,,,6,,,,
8,,,,7,,,,6,,,,5,,,,
4,,,,3,,,,12,,,,,,,,
8h[4:1],,,,,,,,7h[4:1],,,,,,,,
6b,,,,5b,,,,4,,,,3,,,,
1,,,,2,,,,3,,,,4,,,,
5,,,,6,,,,78,,,,,,,,
1-5[4:2],,,,,,,,,,,,,,,,
45,,,,36,,,,27,,,,,,,,
1,,,,2,,,,3,,,,4,,,,
5,,,,6,,,,7b,,,,8,,,,
8,,,,7,,,,6,,,,5,,,,
4,,,,3,,,,2,,,,1,,,,
2,,,,3,,,,4b/5,,,,,,,,
45,,,,2,,,,45,,,,7,,,,
45,,,,45,,,,37,,,,5/1b,,,,
,,,,,,,,,,,,,,,,
,,,,,,,,,,,,,,,,
,,,,,,,,,,,,,,,,
E
&inote_3=(82){16},,,,,
,,,,,,,
,,,,
4h[2:1],,,,,,,,5h[2:1],,,,,,,,
4,,,,5,,,,,,,,6,,,,
6h[2:1],,,,,,,,{32}5h[16:9],,,,,,,,,,,,,,,,,,{16}
4>5[16:23],,,,,,,,,,,,,,,
,,,,,,,,,,,,,,,,
(103)
4h[2:1]/5,,,,,,,,5h[2:1],,,,,,,,
4h[2:1],,,,,,,,5,,4,,3,,2,,
1,,2,,3,,4,,5,,6,,7,,8,,
8,,7,,6,,5,,4,,3,,2,,1,,
4,,6,,3,,5,,4h[4:1],,,,,,,,
5,,3,,6,,4,,5h[4:1],,,,,,,,
1-5[4:1],,,,6,,,,8-4[4:1],,,,3,,,,
2,,5,,3,,6,,2-5[4:1],,,,,,,,
7,,4,,6,,3,,5h[4:1],,,,,,,,
2,,5,,3,,6,,4h[4:1],,,,,,,,
7-4[4:1],,,,1,,,,2-5[4:1],,,,8,,,,
6,,2,,5,,1,,4,,,,4b/5h[8:1],,,,
6h[4:2],,,,2,,,,4h[4:2],,,,7,,,,
5h[4:2],,,,3,,,,3h[4:1],,,,5,,5,,
3h[4:2],,,,7,,,,5h[4:2],,,,2,,,,
4h[4:2],,,,6,,,,6h[4:1],,,,4,,4,,
26,,3,,48,,,,26,,3,,48,,,,
26,,3,,4,,5,,4h[4:1]/5h[4:1],,,,,,,,
1,,2,,3,,4,,5,,6,,7,,8,,
1>8[4:1],,,,,,,,,,36,,4h[8:1]/5h[8:1],,,,
25,,3,,3,,3,,47,,6,,6,,6,,
2b,,3b,,4b,,5b,,,,6,,7,,8,,
51,,2,,3,,4,,15,,6,,7,,8,,
25,,35,,45,,46,,4h[4:1]/7h[4:1],,,,,,,,
47,,6,,6,,6,,25,,3,,3,,3,,
7b,,6b,,5b,,4b,,,,3,,2,,1,,
48,,7,,6,,5,,48,,3,,2,,1,,
47,,46,,45,,35,,2h[4:1]/5h[4:1],,,,,,,,
1-4[4:1],,,,7,,,,8-5[4:1],,,,2,,,,
4h[4:1],,,,7b,,,,5h[4:1],,,,,,,,
26,,4,,4,,4,,37,,4,,15,,6,,
3h[8:1],,,,2h[8:1],,,,1b,,2b,,3b,,4b,,
5b/5,,3,,3,,3,,45,,6,,6,,6,,
37,,5,,4,,3,,26,,3,,4,,5,,
8,,7,,6,,5,,4b,,,,,,,,
45,,3,,4,,3,,45,,6,,5,,6,,
26,,3,,4,,5,,1b/6,,1b/7,,8h[8:5]/1b,,,,
,,,,,,,,,,,,,,,,
,,,,,,,,,,,,,,,,
,,,,,,,,,,,,,,,,
E
&inote_4=(82){16},,,,,
,,,,,,,
,,,,
4h[2:1],,,,,,,,5h[2:1],,,,,,,,
4,,,,2,,,,,,,,3,,,,
6h[2:1],,,,,,,,{32}5h[16:9],,,,,,,,,,,,,,,,,,{16}
4>5[16:23],,,,,,,,,,,,,,,
,,,,,,,,,,,,,,,,
(103)
4h[2:1]/5,,,,,,,,5h[2:1],,,,,,,,
4h[2:1],,,,,,,,5,,2,4,2,,35,,
45,,3,,2,,4,6,4,,6,,7,,5,3,
6,,4,,2,,3,5,3,,5,,7,,6,4,
6,,2,,5h[8:1],,,,3,,7,,4h[8:1],,,,
5,,3,,6,,7,,4,,6,,3,,2,,
1>4[4:1],,6,,7,,8,,8<5[4:1],,3,,2,,1,,
2,,4,,6,,8,,26,,3,,5,4,5,,
4h[8:1],,5,,4h[8:1],,6,,4h[8:1],,7,,4h[8:1],,6,,
5h[8:1],,4,,5h[8:1],,3,,5h[8:1],,2,,5h[8:1],,3,,
1-5[4:1],,2,,3,,4,,4-8[4:1],,5,,6,,7,,
6h[8:1],,,,4h[8:1]/5h[8:1],,,,5,4,5,,4b/5h[8:1],,2,,
6h[4:2],,1,,2,,3,,4h[4:2],,8,,7,,6,,
5h[4:2],,4,,3,,2,,3h[4:1],,6,,5,4,5,,
3h[4:2],,8,,7,,6,,5h[4:2],,1,,2,,3,,
4h[4:2],,5,,6,,7,,6h[4:1],,3,,4,5,4,,
26,,3,,48,,5,,26,,7,,8,,1,,
26,,3,,4,,5,,4v2[8:1]/5v8[8:1],,,,,,,,
1,,5,3,5,,2,,5v7[8:1]/4v1[8:1],,,,,,,,
4,5,3,6,2,7,1,8,1,,36,,4h[8:1]/5h[8:1],,,,
25,,3,4,3,,6,5,6,,3,4,3,,6,4,
8b,,6b,,4b,,2b,,,,3,,4,,5,,
56,,2,5,2,,7,4,7,,1,,3,,5,,
25,,35,,45,,46,,4v6[8:1]/7v2[8:1],,,,,,,,
47,,6,5,6,,3,4,3,,6,5,6,,3,5,
1b,,3b,,5b,,7b,,,,6,,5,,4,,
34,,7,4,7,,2,5,2,,8,,6,,4,,
47,,46,,45,,35,,5v3[8:1]/2v7[8:1],,,,,,,,
1>4[4:1],,6,,7,,8,,1>4[4:1],,8,,7,,6,,
5h[4:1],,,,4h[4:1],,,,3h[4:1],,,,2b,,,,
26,,4,5,4,,8,,37,,4,,15,,6,,
3h[8:1]/7h[8:1],,,,2h[8:1]/6h[8:1],,,,1b,,2b,,3b,,4b,,
5b,,3,4,3,,1,,4,,6,5,6,,8,,
37,,5,4,5,,1,,26,,5,,48,,3,,
2h[8:1]/6h[8:1],,,,3h[8:1]/7h[8:1],,,,4b/5b,,,,,,,,
45,,3,5,4,6,5,,45,,6,4,5,3,4,,
26,,3,7,2,6,1,,1b/6,,1b/7,,8h[8:5]/1b,,,,
,,,,,,,,,,,,,,,,
,,,,,,,,,,,,,,,,
,,,,,,,,,,,,,,,,
E
&inote_5=(82){16},,,,,
,,,,,,,
5,,3,,
6h[2:1],,,,,,4,,3h[2:1],,,,,,4,,
5,,6,,7,,8,,,,2,,3,,4,,
5h[2:1],,,4,,,3,,{32}2h[16:9],,,,4,,,,,5,,,,,6,,,,{16}
7<8[16:21],,,,,,,,,,,,,,
,,,,,,,,,,,,,,,,,
(103)
4/5,,3h[4:1]/6,,,,7,,7h[8:3]/3,,,,,,4,,
4h[8:3]/7,,,,,,5,3,6,2,7,1,8,2,17,,
2>5[8:1]/6,,1,,2/8-4[8:1],,7,,3>8[8:1]/8,,2,,35,,6,,
7<4[8:1]/3,,8,,7/1-5[8:1],,2,,6<1[8:1]/1,,7,,64,,3,,
1h[8:1]/7V51[4:1],,,,2,,3,,4<6[8:1],,3,,2,,1,,
8h[8:1]/2V48[4:1],,,,7,,6,,5>3[8:1],,6,,7,,8,,
1h[8:1]/6<1[8:1],,,,26,,3,,4qq2[8:1]/7,,3,,4/8qq6[8:1],,7,,
1>4[8:1]/8,,2,,7<1[8:2]/1,,8,,17,,8,,7,7,8,,
1V36[4:1]/6h[8:1],,,,7,,8,,1<6[8:1],,2,,13,,4,,
8V63[4:1]/3h[8:1],,,,2,,1,,8>3[8:1],,7,,86,,5,,
6v1[8:1]/4,,5,,4<7[8:1]/6,,3,,2v5[8:1]/4,,1,,8-4[8:1]/2,,7,,
1<6[8:1]/8,,2,,13,,4,,3,5,3,,6b-3[8:1]/3,,45,,
2h[8:1]/6,,,,3h[8:1]/6,,,,2-7[8:1]/7h[8:1],,,,6h[8:1],,,,
1>4[8:1]/8,,2,,1/8<5[8:1],,7,,1-5[8:1]/8,,2,,1/7b-2[8:1],,,,
3h[8:1]/7,,,,2h[8:1]/7,,,,3-6[8:1]/6h[8:1],,,,7h[8:1],,,,
4>1[8:1]/5,,3,,4/8<5[8:1],,7,,48,,3,,2,1,2,,
2>5[8:1]/7,,1,,8<5[8:1]/2,,1,,2-6[8:1]/8,,1,,2/8h[8:1],,,,
1-5[8:1]/8,,3,,8-4[8:1]/1,,6,,2V46[4:1]/8,,1,,26,,7,,
8,,2,2,1-5[8:1]/3,,3,,1>4[8:1]/7,,6,7,81,,6,,
5,3,6,1,7,2,8,4,8,,26,,{48}8,7,6,5,4,3,2,1,,,,,{16}
2/7<4[8:1],,1-5[8:1],1,7v4[8:1],,1,,7<4[8:1],,1-5[8:1],1,7-3[8:1],,1>4[8:1],,
7b<4[8:1],,1b-5[8:1],,7b,,1b,,,,37,,4,4,5,,
16,,7,8,7<4[8:1],,4>1[8:1],,8-4[8:1],,8,,8,,2,,
34,,5,,3V57[8:1]/4V68[8:1],,7V13[8:1]/8V24[8:1],,34,,,,,,56,,
7/2>5[8:1],,8-4[8:1],8,2v5[8:1],,8,,2>5[8:1],,8-4[8:1],8,2-6[8:1],,8<5[8:1],,
2b>5[8:1],,8b-4[8:1],,2b,,8b,,,,62,,5,5,4,,
45,,2,1,2v5[8:1],,2,,6v1[8:1],,6,,2,,2,,
54,,3,,12,,34,,5-1[8:1]/6,,,,4/5b,,,,
1>4[8:1]/8,,2,2,1/8<5[8:1],,7,7,1-5[8:1]/8,,3,,8h[8:1]/1,,,,
7h[4:1]/3,,,,2h[4:1],,,,5>2[8:1],,,,56,,,,
7-4[8:1]/1,,3,2,1-5[8:1]/7,,2,,8-4[8:1]/1,,7,,28,,3,,
4v1[8:1]/5,,3,,4/5v8[8:1],,6,,4b/5,,2b,3,4/8,,2b/6,,
4b/7,,6>3[8:1],5,7,4,6,,1,,3<6[8:1],4,2,5,3,,
8,,1,1,2-5[8:1]/7,,1,,2/7-4[8:1],,8,,2<7[8:1]/7,,1,,
2/6q3[8:1],,5,,26,,3,,4b/5b,,,,,,,,
5h[8:1]/4,,3,5,4,6,5,,4h[8:1]/5,,6,4,5,3,4,,
7h[8:1]/2,,3,7,4,8,5,,4b/7,,2b/5,,1h[8:5]/8b,,,,
,,,,,,{32},28,37,46,5,,,,,,
,,,,,,,,,,,,,,,,
,,,,,,,,,,,,,,,,
E
