&title=少女レイ (いよわRemix)
&artist=いよわ feat.初音ミク
&first=0.309
&des=Kurage
&lv_5=13+
&inote_5=(150)
{4}4qq5[4:3],,,,6h[4:3],,E5,,5pp4[4:3],,,,3h[4:3],,{12}E4,E5,E6,,,,
{4}3<6[12:4],,{12},7>2[12:4],,{4},,,{48},4q5[8:5],,,,,,,,,,,{8},5,
,,,,,,36,,,,,{32},,,D5,{4}E5,,
{12}4bh[12:2]/5bh[12:2],,,{24}36,,,E3,B3,A3,{8}A4`5-2[8:1],,7-3[8:1],7h[8:1],
3,2,{24}1-4b[8:1],8,,2,,,{12}14,,,5,5,5,
{8}3h[12:1]/6h[12:1],{24},4,5,{8}4-7[8:1],3,2-6[8:1],,6,7,
{16}8-5[8:1],1,7,1,{8},3,2h[8:1]/6h[8:1],,,{16}5,4,
{8}3-6[8:1]/6,,,{24}A8,A7,B7,{12}E7,4,5h[12:1],3,3,,
{12}24,,4h[8:1]/6,{24},8-5b[8:1],,{8},58,,{12}4,4,4,
{8}3h[12:1]/6h[12:1],{24},5,4-1[24:4],{8}5-8[8:1],36,,,18,,
24,2,{12}65,6,6h[24:1],{8}4>1[8:1],,,{24},D8,D7,
{8}D6`3-5[32:3],2,5-2[8:1],6,7-3[8:1],8,1>7[16:5]/7,1,
5h[8:3],,,{16}D8,D1,{8}D2`5-8[8:1],,E5/B4,3h[8:1],
8V64[16:3],,2-6[8:1],,2-4[32:3]*-8[32:3],,2,,
6q2[16:3]/5,,2q6[16:3],3,4-1[8:1],,4,,
{8}6-4[32:3],7,4-7[8:1],3,2-6[8:1],1,8<2[16:5]/2,8,
4h[8:3],,,{16}D2,D1,{8}D8`4-1[8:1],,E5/B5,6h[8:1],
1V35[16:3],,7-3[8:1],,7-5[32:3]*-1[32:3],,7,,
2-5[8:1]/4-8[8:1],,24,,6-3[8:1]/7-2[8:1],,,,
{4}1-4[4:2],,,,8-5[4:2]*-5[4:2],,,,4pp4[4:2]*pp4[4:2]`4?qq3[4:2],,,,
{4}4b/5b,{8}3h[16:1]/4,3,5/6h[16:1],6,2h[16:1]/4,2,
45,{24}6,5,6,{16}5h[16:1],7h[16:1],3,5h[16:1],{48}1h[16:1],,,,7,,{24}1,2,3,{4}4/C,
{16}6b/5<8[8:1],,4,5,3-7[8:1]*-8[8:1],,2,,3,,,,65,,3,,
{16}2>5[8:1]/4,,6,2,8-5[8:1]*-3[8:1],,7,,8,,,,4/6pp6[4:1],,3,,
{8}6>8[32:9]/2,,4qq5[16:5],,4,,8w4[8:1],,
8,,6qq4[8:1]/2,4<8[32:5]*q1[32:5],,,,,
{16}3/4>1[8:1],,5,4,6-2[8:1]*-1[8:1],,7,,6,,,,34,,6,,
{16}7<4[8:1]/5,,3,7,1-4[8:1]*-6[8:1],,2,,1,,,,3V52[16:3],,,,
{8}2-5-1[4:1],,1>4[8:1]*<6b[8:1],,,,3/7pp3[8:3],{16},5,
{8}5>7[32:9],4,,,5-1[8:1],46,,,
{16}3b/4>1[8:1],,5,4,6-2[8:1]*-1[8:1],,7,,6,,,,34,,6,,
{16}7<4[8:1]/5,,3,7,1-4[8:1]*-6[8:1],,2,,1,,,,5/3qq3[4:1],,6,,
{8}3<1[32:9]/7,,5pp4[16:5],,5,,1w5[8:1],,
1,,3pp5[8:1]/7,5q1[32:5]*p1[32:5],,,,,
3-5[32:3]/7,2,6<1[8:1],7,4p2[32:9],,8,7,
{16}7<4[8:1],,,8,7,,2,,2>5[8:1]/1,,,1,2,,7,,
78,,,7,5,,45,,{8}3p6[32:11],3>6[32:7],,,
,,45,36,2h[8:1],4h[8:1],5h[8:1],7z3[8:61],
{4}2s6[4:23],,,,,,,,,,,,,,,,,,,,,,,,,,,,7-2[4:2],,,,,,,,
(150.00001){48}5,4,,,,,4,,,,,,
(150){4}63,{12}7`5,7h[12:2]`5h[8:1],,3h[256:1],,,{16}6,6,4h[16:1],5h[16:1],
2h[16:3],,,,34,,5,,{12}1h[256:1]/4h[12:4],,,,,2,
3`5,,{48}3`5,,,3`5,{12},6,,{8}54,2,37,5,
6h[24:1]`4h[24:1],6`4,{32}6,5,4,,{16}3,4,2h[8:1],,4,4,6h[8:1],,8h[8:1],,
1,8,2,1,3h[8:1],,4,3,6,,7h[8:1]/5,,6,,45,,
36,,5,2h[8:1],,3,1,,4h[8:1]/2,,3,,24,,45,,
{8}7/5h[8:1],6,2/4h[8:1],3,8/6h[8:1],7,1/3h[8:1],2,
{16}45,,6,57,,3,24,,8-5[8:1]`1-4[8:1],,2h[64:7]/7h[64:7],,,,,,
{8}E5,,,,3,4,5,6,7pp6[8:3],,{32},,,5,,,,,,,5,,{8},,4,
3h[4:1],,5h[4:1],,1h[4:1],,7<4[4:1],,4pp3[8:3],,2,2,2,,,,
C,,,,6,5,4,3,2qq3[8:3],,{24},,4,,,,,4,,{8},,5,
6h[4:1],,4h[4:1],,8h[4:1],,2-6[8:1],,8-4[8:1],,5qq4[16:5]`5?pp6[16:5],,,,,,
{4}5-8[4:2],,,,4-1[4:2],,,,5qq5[4:2]`5?pp6[4:2],,,,
{8}4,4,5,5,43,3,75,7,81,32,54,76,82,42,4/6`6?pp4[4:4]`4?qq5[4:4],86,
{4},,,,
(150.00001){4},
(150){4},,,,,,,,,,,,,,,,
{8}3h[4:1],,,3h[4:1],,,3,,
{8}6h[4:1],,,6h[4:1],,,6,,
{8}4h[4:1]/5h[4:1],,,6h[4:1]/3h[4:1],,,36,,
{4}E5,,{32}1b-5[8:1]`8b-4[8:1]*-4[8:1],2b/7b,3b/6b,4b/5b,{8},1b/8b`Cf,,
{16}3b/4>1[8:1],,5,4,6-3[8:1],,7,,63,,{16}2,1,{24}2,3,4,8,7,6,
{16}4/5>2[8:1],,6,5,7-3[8:1],,8,,73,,{16}1,8,{24}1,2,3,7,6,5,
{8}2b-5[8:1]/4-8[8:1],,2/4<2[32:9],,6pp5[16:5],,6,,
4-8[8:1],,2qq5[32:11]*qq5[32:11]`2?qq6[32:11]/4,1,2,,,,
4b/3-8[8:1],2,6-4[32:3],7,1pp1[4:1],,5,6,
{16}7p3[32:5],,,8,7,,2,,2q6[32:5]/1,,,1,2,,7,,
7b/8-4[8:1],,,1,8,,2,,3/5>2[8:1],,6,,57,,8,,
8/1-5[8:1],,,2,1,,3,,4-2[32:3]/6-8[32:3],,5,,,,,,
7p3[8:1]/3b,,8,,1p5[8:1]*q5[8:1],,2,,1,,,,46,,37,,
2-5[8:1],1,,1,2,,6,,7-4[8:1],8,,8,7,,3,,
{4}3b-7b[4:2]*-8[4:2],,,,
{16}45,,{24}3,4,3,{16}6,5,7,1,5,5,3,7,{32}1,2,3,4,1,8,7,6,
(140){4}1b-5[4:2],,7h[4:2],,
(145){4}1-5[4:2],,{4}3,3,5-1[4:2],,5,5,
(141){4}1-5[4:2],,3,7,
(133){4}1b-5[4:2],7h[4:2],,,
(138){4}1-5[4:2],,3,3,
(136){4}5-1[4:2],,7,3,
(127){4}1-5[4:2],5,(136){4}7,(144){4}1,
(115){4}1b-5[4:2],,,,
{4}1-5[32:17],,,,
(112.5){4}5-1[32:18],,,,
(114){4}1-5[32:19],,,,
(115){4}1b-5[32:20],,,,
(113){4}1-5[32:22],,,,
{4}{4}1-5[32:24],,,,
(120){4}1-5[32:21],,(110){8}1,(125){8}1,(110){8}1-5[220#12:1],1b,,
