&title=volcanic
&artist=LuzeriA
&first=0.22
&des=急速爆发中
&lv_7=狂
&inote_7=(191)
{16}
4/5,,6,5,6,,4/5,,3,4,3,,2,,7/2,,
5/4,,3,4,3,,5/4,,6,5,6,,7,,8/7,,
4/5,,6,5,6,,4/5,,3,4,3,,2,,7/2,,
1b/8b,,1b,8b,1b,,2b/7b,,5/7,,2/4,,7/8,,1/2,,
7/5,,6,5,7,,7,,3,4,2,,2,,3/1,,
2/4,,3,4,2,,2,,6,5,7,,7,,6/8,,
7/5,,6,5,7,,7,,3,4,2,,2,,3/1,,
2/4,,3,4,2,,2,,7,,7/1,,7/3,,7/5,,
7/4-1[8:1],,6,6,4,,6,,3,3,4-8[8:1],,2,,4,,
2-5[8:1],,1,1,2,,6,,7,7,8-5[8:1],,2,,8,,
1-4[8:1],,6,6,1,,6,,3,3,8-5[8:1],,2,,8,,
2,,7/1,8,7/1,,1/7,,2/6,,2/6,,3/5,,2/6,,
7^4[8:1]/2,,1,1,7,,2,,8,8,2^5[8:1]/7,,8,,2,,
7^4[8:1],,1,1,7,,2,,8,8,2^5[8:1]/7,,8,,2,,
6^1[8:1],,4,4,6,,3,,5,5,3^8[8:1]/6,,5,,3,,
6^1[8:1],,4,4,6,,3,,5,5,3/6,,7/2,,1,,
1/2,,2,4,3,,4/5,,6,5,7,,7,,7/8,,
5/6,,6,8,7,,8/1,,2,1,3,,3,,3/4,,
6/4,,5,,3/5,,4,,7/4,,5,,2/5,,4,,
8b/1b,,8b/1b,7b/2b,6b/3b,,8b/1b,,6/2,,8/4,,6/2,,8/4,,
1,3,1,3,1,3,1,3,
8,2,8,2,8,2,8,2,
7,1,7,1,7,1,7,1,
6,8,6,8,6,8,6,8,
7,8,7,8,7,8,7,8,6,5,6,5,6,5,6,5,
5,4,5,4,5,4,5,4,4,3,4,3,4,3,4,3,
5,3,5,3,6,4,6,4,8,2,8,2,7,1,7,1,
6,5,6,5,7,4,7,4,5,2,5,2,4,3,4,3,
8,1,8,1,7,2,7,2,8,8,8,8,8,8,8,8,
8b,,8b,8b,8b,,8b,,8b,,8b,,8b,,8b,,
7/1,,1,,7/2,,1,,7/2,,3,,7/2,,2,,
3/6,,5,,3/6,,4,,7/5,,6,,2/4,,3,,
2/8,,8,,2/7,,8,,2/7,,6,,2/7,,7,,
6/3,,4,,6/3,,5,,2/4,,,2,1/2,,6,,
4/5,,1,,3/4,,8,,2/3,,7,,1/2,,6,,
8/1,,5,,7/8,,4,,6/7,,3,,5/6,,2,,
4/5,,1/2,,3/4,,8/1,,2/3,,7/8,,1/2,,6/7,,
2/4,,3/4,,6/5,,1/8,1/8,1/8,,2/7,,7/6,,2/3,,
6,,6/5,,4,,6/3,,2,,6/4,,3,,6/2,,
6,,6/5,,4,,6/3,,2,,6/4,,3,,6/2,,
3,,3/4,,5,,3/6,,7,,3/5,,6,,3/7,,
3,,3/4,,5,,3/6,,7,,3/5,,6,,3/7,,
7,,7/8,,1,,7/2,,3,,7/1,,2,,7/3,,
7,,7/8,,1,,7/2,,3,,7/1,,2,,7/3,,
2,,2/1,,8,,2/7,,6,,2/8,,7,,2/6,,
2/1,,8/3,,4/7,,6/5,6/5,6/5,,7,,8/1,,2/7,,
6/5,,6/5,,4/5,,4/5,,3/4,,3/4,,3/5,,3/5,,
7/6,,6/5,,5/4,,4/3,,2/3,,3/4,,4/5,,5/6,,,,
8,,1/8,,1/8,,1/2,,1/2,,7/8,,7/8,,7/1,,8/2,,7/1,,8/2,,2/8,,1/7,,2/8,,1/7,,
6/5,,6/5,,4/5,,4/5,,3/4,,3/4,,3/5,,3/5,,
7/6,,6/5,,5/4,,4/3,,2/3,,3/4,,4/5,,5/6,,,,
8,,1/8,,1/8,,1/2,,1/2,,7/8,,7/8,,7/1,,8/2,,7/1,,8/2,,2/8,,1/7,,2/8,,1/7,,
8/2,,2,3,4/8,,7,,2/6,,3,,4/8,,7,,2h[8:1]/6,,3,4,5/1h[8:1],,6,5,4/8,,3/7,,
4/8,,1/5,,2/6,,2,3,4/8,,7,,2/6,,1,,8/4,,5,,2/6,,2/6,,1,8,7,8,2,8,6,8,3,8,5,8,
4/8,,3,4,5/1,,8,,3/7,,4,,5/1,,8,,3h[8:1]/7,,4,5,6/2h[8:1],,7,6,5/1,,4/8,,5/1,,
2/6,,3/7,,3,4,5/1,,8,,3/7,,2,,1/5,,6,,3b/7b,,3b/7b,,2b,8,1b,8b,2b,,1b,,1b,1,1b,1,
1/7,,7,6,5/1,,2,,7/3,,6,,5/1,,2,,7h[8:1]/3,,6,5,4/8h[8:1],,3,4,5/1,,6/2,,
5/1,,8/4,,7/3,,7,6,5/1,,2,,7/3,,8,,1/5,,4,,7/3,,7/3,,8,1,2,1,7,1,3,1,6,1,4,1,
5/1,,6,5,4/8,,1,,6/2,,5,,4/8,,1,,6h[8:1]/2,,5,4,3/7h[8:1],,2,3,4/8,,5/1,,4/8,,
7/3,,6/2,,6,5,4/8,,1,,6/2,,7,,8/4,,3,,6b/2b,,6b/2b,,7b,1,8b,1b,7b,,8b,,8b,8b,8b,8b,
8b,,5,6,4,,2,,8,,5,6,4,,2,,8,,5,6,4,,2,,8,,5,6,4,,2,,8,,5,6,4,,2,,8,,5,6,4,,2,,
7,,5,4,3,,1,,7,,5,4,3,,1,,
1b,,4,3,5,,7,,1,,4,3,5,,7,,1,,4,3,5,,7,,1,,4,3,5,,7,,1,,4,3,5,,7,,1,,4,3,5,,7,,
2,,4,5,6,,8,,2,,4,5,6,,8,,
8b,,5,6,47,,2,,8b,,5,6,47,,2,,8b,,5,6,47,,2,,8b,,5,6,47,,2,,8b,,5,6,47,,2,,
8b,,5,6,47,,2,,1b/2b,,12,38,47,,12,,8b/1b,,81,27,36,,81,,
1b,,4,3,52,,7,,1b,,4,3,52,,7,,1b,,4,3,52,,7,,1b,,4,3,52,,7,,1b,,4,3,52,,7,,
1b,,4,3,52,,7,,8b/7b,,87,61,52,,87,,1b/8b,,18,72,63,,18,,
6h[8:1],,3,5,2h[8:1],,5,3,6h[8:1],,3,5,2h[8:1],,5,3,
6h[8:1],,3,5,2h[8:1],,5,3,6h[8:1],,3,5,2h[8:1],,5,3,
7h[8:1],,4,6,3h[8:1],,6,4,7h[8:1],,4,6,3h[8:1],,6,4,
7h[8:1],,4,6,3h[8:1],,6,4,7h[8:1],,4,6,3h[8:1],,6,4,
7h[8:1],,4,6,2h[8:1],,5,3,7h[8:1],,4,6,2h[8:1],,5,3,
7h[8:1],,4,6,2h[8:1],,5,3,7h[8:1],,4,6,2h[8:1],,5,3,
8h[8:1],,4,6,1h[8:1],,5,3,8h[8:1],,4,6,1h[8:1],,5,3,
8h[8:1],,4,6,1h[8:1],,7,3,8h[8:1],,2,6,1h[8:1],,7,3,
{8}
1/2,1/2,3/4,3/4,5/6,5/6,7/8,7/8,
1/2,1/2,3/4,3/4,5/6,5/6,7/8,7/8,
3/1,3/1,5/3,5/3,7/5,7/5,1/7,1/7,
2/8,2/8,4/2,4/2,6/4,6/4,8/6,8/6,
1/B1f,2/B2f,3/B3f,4/B4f,5/B5f,6/B6f,7/B7f,8/B8f,
1/B1f,2/B2f,3/B3f,4/B4f,5/B5f,6/B6f,7/B7f,8/B8f,
1/B1f,2/B2f,3/B3f,4/B4f,5/B5f,6/B6f,7/B7f,8/B8f,
1/B1f,2/B2f,3/B3f,4/B4f,5/B5f,6/B6f,7/B7f,8/B8f,
{12}3,3,3,6,6,6,1,1,1,7,7,7,4,4,4,5,5,5,2,2,2,8,8,8,
3/4,3,3,6/5,6,6,1/2,1,1,7/8,7,7,4/3,4/3,4/3,5/6,5/6,5/6,2/1,2/1,2/1,7/8,7/8,7/8,
{64}
2x,1x,7x,8x,2x,1x,7x,8x,2x,1x,7x,8x,2x,1x,7x,8x,2x,1x,7x,8x,2x,1x,7x,8x,2x,1x,7x,8x,2x,1x,7x,8x,2x,1x,7x,8x,2x,1x,7x,8x,2x,1x,7x,8x,2x,1x,7x,8x,2x,1x,7x,8x,2x,1x,7x,8x,2x,1x,7x,8x,2x,1x,7x,8x,
2x,1x,7x,8x,2x,1x,7x,8x,2x,1x,7x,8x,2x,1x,7x,8x,2x,1x,7x,8x,2x,1x,7x,8x,2x,1x,7x,8x,2x,1x,7x,8x,2x,1x,7x,8x,2x,1x,7x,8x,2x,1x,7x,8x,2x,1x,7x,8x,2x,1x,7x,8x,2x,1x,7x,8x,2x,1x,7x,8x,2x,1x,7x,8x,
2x,1x,7x,8x,2x,1x,7x,8x,2x,1x,7x,8x,2x,1x,7x,8x,2x,1x,7x,8x,2x,1x,7x,8x,2x,1x,7x,8x,2x,1x,7x,8x,2x,1x,7x,8x,2x,1x,7x,8x,2x,1x,7x,8x,2x,1x,7x,8x,2x,1x,7x,8x,2x,1x,7x,8x,2x,1x,7x,8x,2x,1x,7x,8x,
2x,1x,7x,8x,2x,1x,7x,8x,2x,1x,7x,8x,2x,1x,7x,8x,2x,1x,7x,8x,2x,1x,7x,8x,2x,1x,7x,8x,2x,1x,7x,8x,2x,1x,7x,8x,2x,1x,7x,8x,2x,1x,7x,8x,2x,1x,7x,8x,A7/D8/A8/D1/A1/D2/A2/E8/E1/E2/B7/B8/B1/B2/Cf,,,,,,,,,,,,,,,,
{8}
6-2[8:1],6,5-1[8:1],5,4-8[8:1],4,3-7[8:1],3,
6-2[8:1],5-1[8:1],6,5,7-3[8:1],8-4[8:1],7,8,
6-2[8:1],6,7-3[8:1],7,8-4[8:1],8,1-5[8:1],1,
6-2[8:1],7-3[8:1],6,7,5-1[8:1],4-8[8:1],5,4,
3-7[8:1],3,4-8[8:1],4,5-1[8:1],5,6-2[8:1],6,
3-7[8:1],4-8[8:1],3,4,2-6[8:1],1-5[8:1],2,1,
3-7[8:1],3,2-6[8:1],2,1-5[8:1],1,8-4[8:1],8,
{16}3,,3,2,1,,51,62,73,,37,,15,,15,,
{8}1b/8b,35,8,46,8b/1b,35,8,46,1b/8b,35,1,46,1b/8b,35,1,46,
1b/8b,35,7,46,8b/1b,35,7,46,1b/8b,35,2,46,1b/8b,35,2,46,
{16}1b/8b,,35,2,8b/1b,,46,7,1b/8b,,35,2,8b/1b,,46,7,
1b/8b,,35,2,8b/1b,,46,7,1b/8b,,35,2,8b/1b,,46,7,
1b/8b,,35,2,7b/1b,,46,7,2b/8b,,35,2,7b/1b,,46,7,
2b/8b,,1,1,1b,1,1,1,1b/2b,,56,,78,,34,,3bV16V83b[4:7]/6bV83V16b[4:7],
