&title=Orphe
&artist=Avans
&first=0
&des=えども~ん
&lv_5=14+
&inote_1=
&inote_2=
&inote_3=
&inote_4=
&inote_5=(72.5){1},
{4},,
{8}5<2[4:1]/4,2h[8:1],,{16}4,4,{8}3pp6[4:1],{16}6,6,{8}7h[8:1],,
{16}5h[4:1],,4,4,3h[4:1],,1,8,7q1[16:3],8,1,1>6[8:1],3h[8:1],,,,
{24}1b-6[16:1],,,3,3,2,3-8[16:1]/1,,,5,5,4,{16}5V36[24:3]/3,5,6-1[16:1],7,7h[8:1]/5,,
{16},,
{32}3,8,2h[16:1],,7,7,3,3,6,5,7h[16:1],,2,2,6,6,
{48}2,3,4,{32}7,7,{48}3s7[12:1],4,5,{32}8,8,{8}3h[8:1],,
{16}3bV51[16:6]/5b,3-7[16:5]/5,,,{8},,,{48},,,8,2,8,{32}2,,,4,,,7,,
{16}6V48[16:6]/4V62[16:6],64,,,{8},,,{48},,,1,7,1,{32}7,,,5,,,2,,
{16}3V57[16:6]/5,26,7h[16:1],,{8}8h[16:1],1h[16:1],2h[16:1],{48}3,,,8,1,8,{32}2,,,4,,,18,,
{16}6-2[16:3]/4,73,2h[16:1],,{8}1h[16:1],8h[16:1],{16}16,{32}7,8,{16}7,{48}1,8,1,{32}7,3,4,2,7,5,6,5,
{2}4h[4:1]/6qq2[16:6],1<3[16:5],{8}1pp4[16:6],8h[16:1],7h[16:1],6h[16:1],{4}5<3[16:5],3h[8:1],
{16}4,4,,,{8}6h[8:2]/4,{48},,,5,4,3,{16}2,35,,,{8}2h[24:5]/6,{48},,,8,7,6,
{8}1-5[12:1]/5,7z3[8:1]/3,1<1[4:1],7,1>1[16:3]*>1[16:3],,,,
{32}2b/5bv6[10:1],,3,,6V84[10:1]/4,64,,,35,,,4,4,,2,,
{32}1v2[10:1],,5,,2V48[10:1]/8,28,,,17,,,8,8,,7,,
{32}6v7[10:1],,2,,7V15[10:1]/3,37,,,64,,,3,3,,2,,
{32}3,6,3,7,3,8,3,1,4,7,5,7,6,7,8,7,
{32}16,,3,,7,8,7-3[16:1],,8/3V57[12:1],,2,1,2,,73,,
{32}2,,2,,1,8,1-5[16:1],,3/5V31[12:1],,7,8,7,,16,,
{32}8,7,6,5,4,3,2,1,{48}6,7,8,1,2,3,{64}8^3[24:1],7,6,5,4^7[24:1],3,2,1,
{4}8bw4[16:1],8b,
{32}8-3[16:1]/3,,,4h[16:1]/5h[16:1],,,,,8/7V51[8:1],,6,6,,8,1,,2pp8[32:5]/7,,3,3,,8^5[16:1],7,,2/6h[8:1],,,,,,,,
{32}8V64[12:1],,,3h[16:1]/5h[16:1],,,,,8/2V48[32:3],,1,1,,8,1,7,2/6pp5[32:3],,5,5>7[8:1],,4,7,5,6/3h[8:1],,,,,,,,
{32}5-1[16:1],,,7h[16:1]/3h[16:1],,,,,4/5V73[32:3],,3,3-6[20:1],,8,71,,3<2[32:5]/5,,4,4,,2qq3[8:1],37,,3/6h[8:1],,,,,,,,
{64}5b,6,7,8h[64:9],{32},,,,,,6h[16:1]/5,,,2h[16:1]/4,,,8V24[10:1]/7h[32:3],,,4h[32:3],,,6h[32:3],,,,7b,,8,,3,5,4,5,
{32}3,,3h[32:3],,2-8[16:1],2,,4,3,,5,5h[16:1],,,,,
{32}3,3,2,3^6[12:1],3,4,3,3,1,3,3,5h[16:1],,,,,
{32}7,,7h[32:3],,6-4[16:1],6,,8,7,,1,1h[16:1],,,,,
{32}8,8,7,8^5[12:1],8,1,8,8,6,8,8,2h[16:1],,,,,
{32}1-4[16:1]*-6[16:1],,,4V25[8:1]/6V85[8:1],,,,,1b,,,,,,,,
{32}1,,1h[16:1],,8,6,7,1,4,2,5,3,{64}6,6,{32}4,7,3,8,,
{32}1h[32:2]/6h[32:2],,,7h[32:2]/5h[32:2],,,4<2[6:1]/2h[32:3],,,7h[32:9],,,3,,,,,,,,,,
{64}1w5[16:1]/8,27,36,4,5,6,7,8,15,26,37,4,5,6,7,8,
{4}1b,{64}1b/8b,2s6[6:1]/7,36,45,,,,,{8},8-4[16:1],{64}6b,7,8,1,
,,,,{8}{32}8^3[16:1]/3,,,2,,,1,,
{32}8-5[16:1]/5,,,6,,,73,,8b-3[16:1]/2,,3,3,,2,2,,8^5[16:1]/5,,6,6,,7,7,,8bq3[8:1]*p5[8:1]/3,,3,3,5,2,6,,8pp3[6:1],,,,,,,,
{32}6b/8bV64[11:1],,,6,,,7,,8/5v8[12:1],,,,{64}3b,2,1,8,,,,,{32}3/5^2[16:1],,,4,,,4,,
{32}5^8[16:1]/8,,,7,,71,,,5b-2[16:1]/2,,2,1,,3,8,,5-1[16:1]/6,,7,8,,6,1,,5bp2[8:1]*q8[8:1]/4,,2,2,7,3,6,,5<4[6:1],,,,,,,,
{4}5b/7bp3[16:1],{32}1-5[16:1]/7,,,,{64}8b/2b,37,46,5,{32},,1-6[16:1]/7,,,6V85[8:1],,,7,,
{32}1-4[16:1]/3,,,4V25[8:1],,,2,,1b-6[16:1]/6,,6V85[8:1],6,,7,7,,1-4[24:1]/4,,4,4,,3,3,,1bq4[8:1]*p6[8:1]/5,,6,6,4,7,2,,1>8[6:1],,,,,,,,
{32}1b/2pp6[6:1],,,1,,,1,,2/8<3[6:1],,,,7,,,,3/8b,,,2,,,1,,
{24}2h[8:1]/3,4,5,6,7,8,
{32}1/4h[8:1],2,3,,5,6,7,8,
{48}1/3h[16:1],2,,4,5,6,7/2h[16:1],8,1,,3,4,
{64}5/1h[8:1],6,7,8,,2,3,4,5,6,7,8,1,2,3,4,
{8}1b/5b,7h[8:1],,{16}2,2,{8}4,{16}6,6,{8}5h[8:1],,
{16}4h[4:1],,6,7,5h[4:1],,3,2,4<8[7:1]*>8[7:1],7,6,3,,,,,
{24}2b-6[16:1]/8b,,,4,4,5,7-3[16:1]/2,,,5,5,4,{16}2V47[24:3]/7,1,7V51[8:1],1,8h[8:1]/2,,
{16},,
{32}7,8,6h[16:1],,1,1,5,5,3,4,2h[16:1],,7,7,3,3,
{48}6p4[4:1],5,4,{32}2,2,{48}7-3[8:1],6,5,{32}1,1,{8},,,,,,,,,,E
&inote_6=
