&title=Link
&artist=Clean Tears feat. Youna
&first=0
&des=Dororo
&wholebpm=132
&inote_6=(132)
{16}
,,,,,,,,,,,,,,,,
4-8[4:3],,,,,,,,,,,,,,,,
7h[16:3],,,6h[16:3],,,5-1[8:1],,,4^7[8:1],,,,,,,
8h[16:3],,,7h[16:3],,,6-3[8:1],,,5-2[8:1],,,,,,,
1h[16:3],,,8h[16:3],,,7-3[8:1],,,6^1[8:1],,,,,,,
2h[16:3],,,4h[16:3],,,6h[16:3],,,8h[16:3],,,1b,,,,
2h[16:3],,,3h[16:3],,,4-8[8:1],,,5^2[8:1],,,,,,,
1h[16:3],,,2h[16:3],,,3-6[8:1],,,4-7[8:1],,,,,,,
8h[16:3],,,1h[16:3],,,2-6[8:1],,,3^8[8:1],,,,,,,
7h[16:3],,,1h[16:3],,,3h[16:3],,,5h[16:3],,,4b,,,,
4^1[2:1]/8h[4:7],,,,,,,,,,,,,,,,
{16}7,6,5,4,{24}3,2,1,,7,6,{32}5,4,3,2,1,,7,6,{16}5b,,,,
4-8[8:1],,4,,7^2[8:1],,7,,1h[4:1],,,,3,,3,4,
5,3,4,,45,,7,8,6,7,6,8,7-3[8:1],,1,1,
7,4,4,,7-3[8:1],,5,5,7,2,2,,7-3[8:1],,{24}1,2,3,
{16}4^1[8:1]/7,,5^8[8:1],,7-3[8:1],,,,,,,,26,,5,4,
5-1[8:1],,5,,2^7[8:1],,2,,8h[4:1],,,,6,,6,5,
4,6,5,,54,,2,1,3,2,3,1,2-6[8:1],,8,8,
2,5,5,,2-6[8:1],,4,4,2,7,7,,2-6[8:1],,{24}8,7,6,
{16}
5-8[8:1]/2^7[8:1],,4,,2-6[8:1]/5,,,,2^5[8:1]/7-4[8:1],,8,,27,,,,
1-4[8:1],,8,,7,7,,,5-2[8:1],,6,6,5,,7,,
1-4[8:1],,8,,7,7,,,5^8[16:1],,,5^2[8:1],,,5,,
8-5[8:1],,1,,2,2,,,4-7[8:1],,3,3,4,,2,,
1-6[16:1]/6-1[16:1],,,2-5[16:1]/5-2[16:1],,,,,,,8,,1b/8b,,,,
2-6[8:1]/6h[16:3],,,4h[16:3],2,,,,4^1[8:1]/7^4[8:1],,3,,47,,,,
2-5[8:1],,5-1[8:1],,1-6[8:1],,7-3[8:1],7h[16:3],,,,,5,,7-3[8:1],7,
,,17,,1,,7-3[8:1],7,,,57,,4^1[16:3],,2^7[16:3],,
8^5[16:3],,,,4,,4-8[8:1],,,,2,,2,,2,,
7-3[8:1]/3h[16:3],,,5h[16:3],7,,,,5^8[8:1]/2^5[8:1],,6,,52,,,,
7-4[8:1],,4-8[8:1],,8-3[8:1],,2^7[8:1],2h[16:3],,,,,4,,2^7[8:1],2,
,,24,,5,,2^7[8:1],2,,,24,,5-8[8:1],,5-2[8:1],,
5,,,,1,,37,3/7h[16:3],,,3,4,5,4,5,6,
4h[16:3]/5-8[8:1],,,7h[16:3],,,,,{32}1-5[8:1]/5-8[8:1],8,7,6,5,4,3,2,{16},,,,
5h[16:3]/4-1[8:1],,,2h[16:3],,,,,{32}8-4[8:1]/4-1[8:1],5,6,7,8,1,2,3,{16},,,,
2b/6b,,1,8,1,,2-6[8:1],2,,,24,,5^8[16:3],,7^2[16:3],,
1^4[16:3],,,,5,,5-1[8:1],,,,7,,7,,7,,
2-6[8:1]/6h[16:3],,,4h[16:3],2,,,,4-1[8:1]/7-4[8:1],,3,,47,,,,
2^5[16:3]/4-1[8:1],,1-6[8:1],,4^7[16:3],,,,,,8,,8,,{24}1/7-3[8:1],26,35,
{16}4h[4:1],,,,,,4^1[8:1],,,,{24}1,8,7,{16}6b,,,,
5h[8:1]/7h[8:1],,,2h[8:1]/4h[8:1],,,18,,{12}2-6[12:1],8-4[12:1],6-3[12:1],{16}4-7[12:1],,,,
,,,,2,4,5,4,2,4,5,4,3-7[8:1],,,,
1^6[8:1],,8,8,5^2[8:1]/1-5[8:1],,4,,1^6[8:1]/5,,,,7b,,,,
{32}2,1,8,7,6,5,4,3,{16}7,5,4,5,7,5,4,5,6-2[8:1],,,,
8-3[8:1],,1,1,4-7[8:1]/8-4[8:1],,5,,8-3[8:1]/4,,,,2b,,,,
1h[8:7]/5h[1:1],,,,,,,,,,,,,,,,
1-5[8:1],,,,,,,,,,,,,,,,
,,,,,,,,,,,,,,,,
,,,,,,,,,,,,,,,,
E
