&title=The Poet
&artist=塞米七
&first=0.24
&des=夏末之海
&des_5=夏末之海
&lv_5=13.4
&inote_5=(140){4},,,,{1}5-8[2:1]/4-1[2:1],
1-4[2:1]/8-5[2:1],
4>8-4[2:3]/5<6-3q7[2:3],
,3-8[2:1]/7p3[2:1],
3<6[2:1]/7>2[2:1],
4z8[0.4286##2.0965]/8<8[0.4286##2.0965],
(148),
(140)1bh[4:7]/8>7-1-3-5-7[2:3],
{8},,,,,,,,E8,
B2,B6,E4,{4}E5,{8}B1/B2,B8/B7,
C,,,,,Ch[4:1],,,{1}8bh[1:2]/1<2-8-6-4-2[2:3],
{8},,,,,,,,E2,
B7,B3,E6,{4}E5,{8}B1/B2,B8/B7,
{1}Ch[1:1],
8-4[4:9],
{4}1h,7h,2h,6h,
{8}3h,,,5bh[8:5],,,,,{1}2q4[4:3],
1-5[4:9],
{4}8h,2h,7h,3h,
{8}6h,,,4bh[8:3],,,{4}Ch[4:5],
,,,,{1}1-4[1:1],
8-5[12:17],
{16}B1,,,B2,,,{8}B3,{16},B4,,,{4}Ch[4:1],
(138)8qq5[0.4348##0.8696],,,(140),
{8}4/5b,B3,4/5,B6,4/5,B3,4/5,B6,
3/5,C,4/6,C,3/5,C,4/6,C,
2b/5b,B3,4/7,B6,1/5,B2,4/8,B7,
1/5,B3,4/8,B6,1/5,B4,4/8,B5,
6b/3b,5/2,4/1,2/5,3/6,7/4,8/5,7/4,
6b/2b,6/2,1/5,5/1,6/1,7/1,8/1,8/1,
{16}8bx,1,6,3,7,2,5,4,8,1,6,3,7,2,5,4,
{24}8bx,7x,6x,5x,4x,3x,2x,1x,8x,7x,6x,5x,{4}4v7[8:1]/8-3[8:1],{16}8b/4b,Cf,,,{4}8-6[8:1]/4-2[8:1],
8/4,{8}7-2[8:1]/3-6[8:1],6/2,{4}7/3,
{8}6,4,{16}7-5-1[4:1],8,7,8,{8}7,3,4,{16}2,2,
{4}8bp4[12:1],1/8,{8}5/3h,6/2h,{24}7,6,5,1,2,3,
{8}4/8qq5[8:5],1x,8/4,3,{4}4v1[8:1],4,
6<1[8:1]/2>5[8:1],6/2,6>3[8:1]/2<7[8:1],6/2,
{8}4/6,5,{16}1-3[8:1],8,{8}7,{16}5/1,6,7,8,{8}4x,{16}3/6,2/5,
{8}1b/4b,{16}5,5,3,3,6,6,{4}1h[8:1],{24}1x,2,3,7x,6,5,
{32}1bx,2,3,4,6x,E7,B7,B8,1x,2,3,4,6x,E7,B7,B8,1x,2,3,4,6x,E7,B7,B8,1x,2,3,4,6x,E7,B7,B8,
{4}1/2xq5[8:5],1,{8}6-8[8:1],6x,{4}6b,
{8}6/4,7/3,{16}2-4-1[4:1],8,2,7,{8}2,6,5,{16}3,7,
{4}3>8[8:1]/7x<4[8:1],3/7,{8}4/8h,1/5h,{24}2,3,4,8,7,6,
{8}3/5pp7[8:1],2,5/1pp3>7[4:1],2,{2}7x<4[12:1],
{4}1>4[8:1]/7qq4[2:1],1,2<8[8:1],2b,
{8}5/3,4,{16}8<6[8:1],1,{8}2,{16}4/8,3,2,1,{8}5x,{16}6/3,7/4,
{4}8b/5b,{16}4,4,5,5,3,3,6,6,2,2,7,7,
{32}2bx,3x,,,,,8b/2b,3,,,,,7b/2b,3,,,3bx/8b,4x,,,,,,,{4}2h[8:1]/Cf,
8qq5[2:1],{8},,,,4,4qq4[2:1],
4pp4[8:3],4,,,,,2,1,
{4}1pp4[2:1],{8},,,,5,5pp5[2:1],
5qq5[8:3],5,,,,,6h[4:1],5,
{4}5<4[4:3],{8},,,,4<3[1:1],5,
6,7,,,,,3<2[1:1],4,
{4}5,{8},,,,2>1[1:1],3,
4,5,,,,,,,{4}8xp4<8[8:5],
3,{2}3,
{8}2h[8:1],6h[8:1],3h[8:1],5h[8:1],{2}4h[4:1],
{4}2-7>3<4-1[1:1]/6-3<7>8-5[1:1],2/6,,,,,{2}4v1[8:1]/8v5[8:1],
{4}7-2[8:1]/6-3[8:1],7/6,2-7[8:1]/3-6[8:1],2/3,
5-1[8:1]/4-8[8:1],5/4,{8}8/4,5/1,8/4,5/1,
{4}4x>2[8:1]/8x<6[8:1],8/4,8x>5v2[1:1]/4<1v6[1:1],4/8,
,,,,4qq1[2:1]/8qq5[2:1],
4/8,{8},,,,1/6,
6/1,2/6,6/2,{2}6/3h[4:1],
{4}3-8>4<5-2[1:1]/7-4<8>1-6[1:1],3/7,,,,,{2}1-6[8:1]/5-2[8:1],
{4}1-7[8:1]/5-3[8:1],1/5,2-4[8:1]/6-8[8:1],2/6,
4-2[8:1]/8-6[8:1],4/8,{8}7h/3h,5h/1h,7h/3h,5h/1h,
{4}8-3[8:1]/7-3[8:1],8/7,6V82z6[1:1]/2V46z2[1:1],6/2,
{8},,,,,,,,1x/8bx,
7,1/8,2,1/8,7,1/8,2,
2/7,6,1/8,2,1/8,7,1/8,2,
1/7b,6,2/7,3,6/2,5,3/6,4,
5/3,6,4/5,2,6/3,7,2/6,1,
7b/2,7/2,8/3,3/8,2/7,7/2,6/1,6/1,
5b/3,2/6,1/7,2/6,3/5,4/6,7/3,8/2,
{16}1bx,7,1,7,8,6,8,6,1,5,1,5,2,6,3,7,
{24}4bx,5x,6x,7x,8x,1x,2x,3x,4x,5x,6x,7x,{4}8v3[8:1]/4-7[8:1],{16}4b/8b,Cf,,,{8}6-4[8:1],
1-3[8:1],6,1,5-1[8:1],4,{4}5/4h[16:3],
{8}3,8,{16}4-2-6[4:1],5,4,5,{8}4b,7,7,{16}4,4,
{4}3v8[8:1]/5-7[8:1],3/5,{8}1/6h,2/7h,{24}8,7,6,1,2,3,
{8}4/7qq5[8:1],2,7/3qq1>5[4:1],2,{2}5x<8[12:1],
{4}6<1[8:1]/4qq1[2:1],6,7<5[8:1],7b,
{8}2,6h,{16}4>2[8:1],8,4,8,4,7bx,6x,5x,{8}4,{16}1x/6x,2/7,
3/8,,,5x,4,5,3,5,2,5,1,5,2,5,3,5,
{24}4bx,3,{48},,,,,6/4,,3,,,,,,,{24}3/5,2,,2x/4,1x,,,,,8,7,6,4,3,2,
{4}8p3<8b[16:9],2-8[8:1],{2}2,
{8}6/2v3-5[8:3],7,7-1[8:1],7,{2}7b,
{4}3<2q7[1:1]/2q7>6[1:1],3/2,,
,,,{2}3p6[8:1]/2<7[8:1],
{4}7x>2[8:1]/6xq3[8:1],6/7,3x<6[8:1]/2xq7[8:1],2/3,
7x>2[8:1]/6xq3[8:1],6/7,{8}1/4,4/B1,2/4,4/B2,
{4}8x-3[8:1]/7x-4[8:1],8/7,2x-5>7-4[16:17]/1x-6>8-3[16:17],2/1,
,,,,6qq3[16:9]/1-7[8:1],
1-3[8:1],{2}1,
{8}3h[8:1],7h[8:1],2h[8:1],8h[8:1],{2}1h[4:1],
{4}7-2>8-4[1:1]/2-7<1-5[1:1],2/7,,,,,{2}8-5[8:1]/1-4[8:1],
{4}2v8[8:1]/6v4[8:1],2/6,7xv1[8:1]/3xv5[8:1],7/3,
2xv8[8:1]/6xv4[8:1],2/6,{8}5/2xh,7/4h,5/2h,7/4h,
{4}8-5[8:1]/1-4[8:1],8/1,6-3<1q5[0.4286##1.6873]/3-6>8p4[0.4286##1.6873],3/6,
(143){1},
(140){4}7bqq4[8:5]/1b-3[8:1],1,1v7[8:1],1,
2bxpp5[8:5]/8bx-6[8:1],8,8-2[8:1],8,
6bpp1[8:5]/4b-2[8:1],4,4-6[8:1],4,
{2}8qq5[8:5],{8}1,2,3,4,
{1}3b<3[4:9]/6z2[2:3],
E
