&title=虚構の楽園
&artist=葉月ゆら
&first=0
&des=おにねこ
&lv_5=13
&inote_5=(128){1},,
{4}
1/8<5[16:3],2,3>8[16:3],4,5>2[16:3],6,7p6[4:1],,
1>4[16:3],7,6<1[16:3],5,4<7[16:3],3,2h[8:3],{8}1,8,
{4}
3/7<3[16:4],8,1<5[16:4],2,3>7[16:4],4,5pp4[16:5],{8},2,
2<7[16:3],,,6,6-2[16:3],,,4,4-6[16:2]*-2[8:1],,,,8b,
{16}7,1,6,2,5,3,24,,4<7[8:1],2,,,3,,4,,5>2[8:1],6,,,7,,
8h[8:1],,1-5[32:4],8,,7,,6<2[16:3],,,5,,4,,3,,
1h[16:3]/2,,,3,8,,6,,8h[16:3]/7,,,6,1,,3,,
4/5qq5[8:2],,,6,5,,7,,8<5[8:1]*>3[8:1],,8,,,,,,
7h[8:1]/4,,5>2[8:1],7,,,6,,5,,4-8[8:1],3,,,2,,
1h[8:1],,7<4[32:4],1,,2,,3>8[16:2],,,4,,5,,6,6,5h[16:3],,,7,4,,3,3,
4h[16:3],,,2,5,,71,,{24}4-8[8:1],5-1[8:1],4,5,,,{16},,,,2,3,4,5,3b/6b,,,,
1/8-4[16:2],,,4<7[16:2],,,2,,1-5[16:2],,,5>2[8:1],,,7,,
8qq4[8:2],,8,,3,,2,2h[16:8],,,3,,4,,5,5,2q6[8:1],,,,6,,7,,8qq8[16:4],,,1,1,,2,,
3h[16:3],,,4,2,,8,,6h[16:3],,,5,7,,1,,
3>8[8:1]/4,,,8-4[8:1],,,5,,6<1[8:1],,,1-5[8:1],,,4,,3>7[16:3],,3,,4,,5,5h[16:8],,,3,,2
,,1,1,5V71[16:3],,,,4,,3,,2>5[8:1],,,1,2,,8,,7<4[8:1],,,8,7,,1,2,3b/8h[16:6],,,2b,,,1b,,
28,,3,,4/6h[16:2],,5,6pp4[8:2],,,4,,3,,2,,1>4[8:1],,,8,1,,
{24}8,7,6,5h[8:2],,,8,1,2,3h[8:1],,,{16}4,,2/5p2[16:5],,,,,,
6,,7,,8,,17,,62,,3/5p4[16:3],,,2,5,,1>5[16:3]*<5[16:3],,,,,,,,,,
75,,6,,5/3h[16:2],,4,3qq5[8:2],,,5,,6,,7,,8<5[8:1],,,1,8,,
{24}1,2,3,4h[8:2],,,1,8,7,6h[8:1],,,{16}5,,7/4q7[16:5],,,,,,
3,,2,,1,,7h[16:2]/2,,1,8,3b/6b,,2,7,4,5,2b/7b,,4,5,2,7,3,6,1bs5[16:6]/8b,,,,
1b,,,1b,,,1b,,,,
1,2,3,4,5>2[8:1]/1<6[8:1],,,,1q5[8:1]/5,,,,5qq2[8:3]/1,,,6,,,7,,8qq5[8:3],,8,,
4p8[8:1],,4,,4>1[8:1]*<7[8:1],,,,,,,,2/6h[8:1],,5q2[16:3],6,,,52,,3>5[8:2],,4,,35,,,,
8-4[8:1],,,3,8<5[8:1],,2,,8>3[8:1]/4,,,,5,6,7,8,
5>2[8:1]/1<6[8:1],,,,5q1[8:1]/1,,,,1qq5[8:3]/5,,,2,,,3,,4qq1[8:3],,4,,
8v5[8:1],,8,,8,,,,73,,6,6h[16:3],5h[8:1],,,74,,,3,3h[16:3],4h[8:1],,,16,,,
5,5,45,,6,57,,3,24,,8,1,6,3,
1-3[32:3]/8-6[32:3],,,,
1b-5[8:1]/8b,,,5,1-4[32:3],,6,,1-6[8:1],7,7,,1-3[32:3]/8,,,,
1-5[8:1],,,8,1-4[32:3],,7,,1-6[8:1],,6,,1pp5[16:5]/5,5,,,6,,,7,,,
8,,7/1h[16:3],,6,6,1h[16:2],,5,,1/4>1[8:1],,,5,4<7[8:1],,,,2/4-8[8:1],,,,
4-2[32:3]/8-6[32:3],,,,
8-4[8:1],,,3,8-5[32:3],,2,,8-3[8:1],1,1,,8-6[32:3],,2,,
8-4[8:1]/1,,,2,8-5[32:3],,3,,8-3[8:1],,4,,8qq1[16:5]/5,5,,,4,,3,3,,2,2,,
1pp8[8:2]/5,,6,6,,7,7,,{12}6,6,6,51,51,51,{16}48,,
3,5,2,6,1,7,
68,,8>4[16:3],6,,,7,,8,,1p5[8:1],2,,,3,,
4h[8:1],,6<2[16:3],3,,2<6[16:3],,3,,,4,,5,,4,,
3h[16:3]/5,,,1,3,,54,,6h[16:3]/4,,,8,6,,45,,
3/4pp4[8:2],,,3,4,,2,,1-6[8:1]*-5[8:1],,82,,,,,,
3h[8:1]/8,,1<5[16:3],3,,,2,,1,,8q4[8:1],7,,,6,,
5h[8:1],,3>7[16:3],6,,7>3[16:3],,6,,,5,,4,,5,5,4>1[8:1],,,,64,,7,6,5<8[8:1],,,3,5,,
2,,{16}1,1,8,2,7,3,6,4,5,
5,4,6,3,7,2,8,
7h[16:2]/1h[16:2],,,2h[16:2]/8h[16:2],,,3h[16:4]/1,8,7,6,5,4,
3h[16:2]/5h[16:2],,,6h[16:2]/4h[16:2],,,7h[16:4]/5,4,3,2,1,8,71,,3/5<4[8:12],,,,,,1h[16:31],,,,
