&title=チョコレイトディスコ
&artist=Perfume
&first=0.095
&demo_seek=22.59
&lv_2=6
&des_2=
&inote_2=
(128){4},,,,,6,
,7,
,8,,1,
,3,,2,
,1,,8,
2,2,3h[8:1],2,
7,7,6h[8:1],7,
4,4,5h[8:1],4,
8,8,1h[8:1],8,
2,2,3h[8:1],2,
7,7,6h[8:1],7,
4,4,5h[8:1],4,
5,4,{2}3,
1/2,{4}7,7,
4,5,{2}6,
7/8,{4}1,1,
8,7,{2}6,
4/5,{4}3,3,
4,5,6,7,
1/8,,,6,
2/6,7/3,{2}6/2,
{4}5,6,7,8,
{1}1-4[4:1],
{4}6,5,4,3,
{1}2-7[4:1],
{4}3,2,1,8,
{1}7-2[4:1],
{4}4,3,2,1,
{1}8-5[4:1],
{2}2h[16:3],1h[16:3],
8h[16:3],{8}7,7,,,{2}6h[16:3],
5h[16:3],
4h[16:3],{8}4,4,,,{2}8h[16:3],
7h[16:3],
6h[16:3],{8}5,5,,,{4}7,
8,1,2,
1b/2b,1/8,7/8,1b/8b,
2,2,3h[8:1],2,
7,7,6h[8:1],7,
4,4,5h[8:1],4,
8,8,1h[8:1],8,
2,2,3h[8:1],2,
7,7,6h[8:1],7,
4,4,5h[8:1],4,
5,4,{2}3,
1/2,{4}7,7,
4,5,{2}6,
7/8,{4}1,1,
8,7,{2}6,
4/5,{4}3,3,
4,5,{2}6,
1/8,{4}6,6,
2/6,7/3,{2}6/2,
E
&lv_3=8
&des_3=
&inote_3=
(128){4},,,,2,
3,{16}6,,,6,{4}6,
7,8,{16}1,,,1,{4}1,
{1}4>1[2:1],
8<5[2:1],
{4}1,8,6,6h[1:1],
8,1,3,3,
7,2,8/1,7/2,
4,5,6h[8:1]/3h[8:1],6/3,
{8}1,2,1,2,1,2,{4}2/1,
{8}8,7,8,7,8,7,{4}7/8,
{8}2,2,7,7,8,1,{4}8,
6,3,{2}1>4[4:1]/8<5[4:1],
{4},,2,6,
{8}5,4,5,4,{2}5,
6h[4:1]/3h[4:1],{4}4/6,3/5,
{1}3>6[2:1],
{4},6/5,,4/3,
{8}5,4,5,4,{2}5,
3h[4:1]/6h[4:1],{4}5/3,6/4,
7/6h[4:3],2,{2}1,
{4}7,7,{16}5h[8:1],,,7,,,{8}6,
{4}6,1-4[4:1],,,7,
6,{16}5h[8:1],,,6,,,{8}7,
{4}7,2-7[4:1],,,7,
8,{16}1h[8:1],,,8,,,{8}7,
{4}7,7-2[4:1],,,8,
7,{16}6h[8:1],,,7,,,{8}8,
{4}8,8-5[4:1],{8},,,1,
2h[16:3],,,2,3h[16:3],,,3,
4h[16:3],,,5,6,7,,8,
7h[16:3],,,7,6h[16:3],,,6,
5h[16:3],,,4,3,2,,2,
3h[16:3],,,3,4h[16:3],,,4,
5h[16:3],,,6,7,8,,6,
{4}7,7,7/2,2/7,
1b/6b,2/7,3/8,7b/2b,
{8}1,2,1,2,1,2,{4}1/3,
{8}8,7,8,7,8,7,{4}6/8,
{8}1,1,6,6,7,1,{4}7,
{8}5,4,5,4,5,4,{4}5/4,
{8}8,1,8,1,8,1,{4}1/8,
{8}5,4,5,4,5,4,{4}5/4,
7/6h[4:3],3,2,1,
6,3,{2}1>4[4:1]/8<5[4:1],
{4},,7,3,
{8}5,4,5,4,{2}5,
3h[4:1]/6h[4:1],{4}6/4,5/3,
{1}3>6[2:1],
{4},5/6,,4/3,
{8}5,4,5,4,{2}5,
6h[4:1]/3h[4:1],{4}5/3,4/6,
7/6h[4:7],2,{2}1h[4:5],
E
&lv_4=10
&des_4= Maimai Team
&inote_4=
(128){4},{8},,,,,,1,
1,2,2,{16}1,,,1,{4}1,
{8}6,6,7,7,{16}6,,,6,{4}6,
{8}3,3,2,2,{16}3,,,3,{4}3,
{8}7,7,8,8,{16}7,,,7,{4}7,
{8}1,2,1,2,1,1,{4}1,
{8}8,7,8,7,8,8,{4}8,
{8}3,4,3,4,3,3,{4}3,
{8}6,5,6,5,6,6,{4}6,
{8}1,2,1,2,1,2,{4}3,
{8}8,7,8,7,8,7,{4}6,
{8}3,4,3,4,3,4,{4}5,
{8}7,2,7,2,{4}7,{8}6/5,5/4,
{4}3/4,2,2,2,
{8}5,4,5,4,{4}5,{8}7/6,8/7,
{4}8/1,2,2,2,
{8}7,6,7,6,{4}7,{8}8/1,2/1,
{4}3/2,4,4,4,
{8}2,3,2,3,{4}2,{8}5/4,5/6,
{4}6/7,8,8,8,
5,4/5,6/3,7/2,
7,7,{16}5h[8:1],,,7,{8}7,6,
6,6,{4}1-4[4:1],,,7,
6,{16}5h[8:1],,,6,{8}6,7,
7,7,{4}2-7[4:1],,,7,
8,{16}1h[8:1],,,8,{8}8,7,
7,7,{4}7-2[4:1],,,8,
7,{16}6h[8:1],,,7,{8}7,8,
8,8,{4}8-5[4:1],{8},,,1,
2h[16:3],,,2,3h[16:3],,,3,
4h[16:3],,,5,6,7,,8,
7h[16:3],,,7,6h[16:3],,,6,
5h[16:3],,,4,3,2,,2,
3h[16:3],,,3,4h[16:3],,,4,
5h[16:3],,,6,7,8,,6,
{4}6/7,8/7,8/1,1/2,
3/2,2/1,1/8,8/1,
{8}1,2,1,2,3,4,{4}4,
{8}8,7,8,7,6,5,{4}5,
{8}3,4,3,4,5,6,{4}6,
{8}6,5,6,5,4,3,{4}3,
{8}1,2,1,2,3,4,{4}4/3,
{8}8,7,8,7,6,5,{4}5/6,
{8}3,4,3,4,5,6,{4}5/6,
{8}6,5,6,5,{4}4,{8}1,8,
{4}1/8,4,3,2,
{8}5,4,5,4,{4}5,{8}5/6,5/4,
{4}3/4,2,2,2,
{8}7,6,7,6,{4}7,{8}7/6,8/7,
{4}8/1,2,2,2,
{8}2,3,2,3,{4}2,{8}1/8,2/1,
{4}3/2,4,{2}4,
{4}2/6,7/3,{2}2/6,
E
&lv_5=12
&des_5=Maimai Team
&inote_5=
(128){4},{8},,,,,,1/8h[8:7],
1,2,2,{16}1,,,2,{8}2,1,
6/5h[8:7],6,7,7,{16}6,,,7,{8}7,6,
3/4h[8:7],3,2,2,{16}3,,,2,{8}2,3,
7/6h[8:7],7,8,8,{16}7,,,8,{8}8,7,
1,2,1,2,1/2,1,{4}1,
{8}7,8,7,8,8/7,7,{4}7,
{8}4,3,4,3,4/3,4,{4}4,
{8}6,5,6,5,6/5,6,{4}6,
{8}1,2,1,2,1/2,3/8,{4}4/7,
{8}7,8,7,8,8/7,6/1,{4}5/2,
{8}4,3,4,3,4/3,5/2,{4}6/1,
{8}6,5,6,5,{4}6,{8}5/6,4/7,
3/8,3,4,4,{16}3,,,4,{8}4,3,
4,5,4,5,{4}4,{8}5/4,6/3,
7/2,2,3,3,{16}2,,,3,{8}3,2,
7,6,7,6,{4}7,{8}7/6,8/5,
4/1,4,5,5,{16}4,,,5,{8}5,4,
2,3,2,3,{4}2,{8}3/2,1/4,
5/8,5,6,6,{16}5,,,6,{8}6,5,
{4}6/7,8/7,8/1,7/2,
{8}2,2,3,3,{16}7h[8:1],,,6,,,{8}6,
7,8,1,{16}2,3-6[16:3],,,,,,,,,{8}2,
2,1,1,{16}2h[8:1],,,3,,,{8}3,
2,1,8,{16}7,6-3[16:3],,,,,,,,,{8}1,
1,8,8,{16}4h[8:1],,,5,,,{8}5,
4,3,2,{16}1,8-5[16:3],,,,,,,,,{8}5,
5,4,4,{16}8h[8:1],,,1,,,{8}1,
8,7,6,{16}5,4-1[16:3],,,,,,,{8}8,
{16}3h[16:1],,,3,,,{8}7,{16}2h[16:1],,,2,,,{8}6,
{16}1h[16:1],,,1,,,{8}8,7,6,,5,
{16}2h[16:1],,,2,,,{8}4,{16}1h[16:1],,,1,,,{8}3,
{16}8h[16:1],,,8,,,{8}1,2,3,,6,
{16}2h[16:1],,,2,,,{8}7,{16}3h[16:1],,,3,,,{8}8,
{16}4h[16:1],,,4,,,{8}3,2,1,,6,
{4}6b/7b,8/7,8/1,1b/2b,
2/3h[4:3],2,1,8,
{8}1,2,1,2,2/1,1,{4}1,
{8}7,8,7,8,8/7,7,{4}7,
{8}4,3,4,3,4/3,4,{4}4,
{8}6,5,6,5,6/5,6,{4}6,
{8}1,2,1,2,1/2,3/8,{4}7/4,
{8}7,8,7,8,7/8,1/6,{4}2/5,
{8}4,3,4,3,4/3,5/2,{4}1/6,
{8}6,5,6,5,{4}6,{8}5/6,4/7,
3/8,3,4,4,{16}3,,,4,{8}4,3,
4,5,4,5,{4}4,{8}5/4,6/3,
7/2,2,3,3,{16}2,,,3,{8}3,2,
7,6,7,6,{4}7,{8}7/6,8/5,
4/1,4,5,5,{16}4,,,5,{8}5,4,
2,3,2,3,{4}2,{8}3/2,1/4,
8/5,5,6,6,{16}5,,,6,{8}6,5,
{4}7/6,8/7,{2}1/8,
E
&lv_6=13
&des_6=Lv Cat
&inote_6=
(128){4},{8},,,,,,3h[16:1],
4h[16:1],5h[16:1],6h[16:1],{4}2h[4:1]/8h[16:3],{8}7h,4h/5h,
6h[16:1],5h[16:1],4h[16:1],3h[16:1],{4}7h[4:1]/1h[16:3],{8}2h,5h/4h,
6h[16:1],8h[16:1],1h[16:1],3h[16:1],{4}7h[8:3]/5h[16:3],{8}6h,8h,
3h[16:1],1h[16:1],8h[16:1],6h[16:1],{4}2h[8:3]/4h[16:3],{8}3h,1h,
7h/3-8[8:3],6h,5h,4h,3h,5h,{4}8h/1h,
{8}2h/6-1[8:3],3h,4h,5h,6h,4h,{4}1h/8h,
{8}4h/7q4[8:3],3h,2h,1h,8h,8h,{4}5h/6h,
{8}8h/3q8[8:3],7h,6h,5h,4h,4h,{4}1h/2h,
{8}7-4[4:1],7h,4q1[4:1],4h,1h,2h,{4}3h,
{8}3-8[4:1],3h,8q5[4:1],8h,5h,6h,{4}7h,
{8}8<4[4:1],8h,4>8[4:1],4h,8V64[4:1],8h,{4}4h,
{8}3h,2h,1h,8h,{4}7h/2h,{8}5h/1-5[8:1],6h/2h,
1b/7,8,1,2,{16}5/6h[4:1],,,2,{8}3,7/1,
6,7,8,1,{4}2/7,{8}4/8-4[8:1],3/7,
2/8,1,8,7,{16}4/3h[4:1],,,7,{8}6,2/8,
6/1,2,3/8,7,{4}5/4,{8}6/2-7[8:1],7/3,
6/2,5,4/1,2,{16}3/8h[4:1],,,4,{8}5,7/3,
2/6,5,7/4,3,{4}1/8,{8}2/6-3[8:1],3/7,
2/6,1,8/5,6,{16}7/4h[4:1],,,8,{4}7-3[8:1],
8-4[8:1],1-5[8:1],{2}2>5[8:1]*<7[8:1],
{8}8/4,6,5/7,1,8h[8:3],{16}3,4,,1,{8}2,
7/3,6/5,4/3,5/1,{16}7,8h[16:5],,1,2,3,{8}4,
1/5,3,4/2,8,1h[8:3],{16}6,5,,8,{8}7,
2/6,3/4,5/6,4/8,{16}2,1h[16:5],,8,7,6,{8}5,
4/8,2,3/1,8,7h[8:3],{16}3,4,,1,{8}2,
7/6,6/5,6/7,5/6,{16}7,8h[16:5],,1,2,3,{8}4,
5/1,7,6/8,1,2h[8:3],{16}6,5,,8,{8}7,
2/3,5/4,7/6,1/8,{4}2/7-4[8:1],{8}7/8,1v4[8:1],
1h[16:3],,,6v1[8:1],6h[16:3],,,2,
{4}2>7[4:1],7<2[4:1],2>7[4:1],{8}7,8q4[8:1],
8h[16:3],,,1p5[8:1],1h[16:3],,,3,
{4}3>6[4:1],6<3[4:1],3>6[4:1],{8}6,5-1[8:1],
5h[16:3],,,3-7[8:1],3h[16:3],,,8,
{4}8z4[4:1],4z8[4:1],{2}8-2[8:1]*-6[8:1],
5pp7[8:1]/2>5[8:1],4qq2[8:1]/7<4[8:1],
{4}1-3[8:1]*-7[8:1],1-5[8:1],1<6[8:1]*>4[8:1],1b,
{8}7/3,5,7/3,1,7/3,8/4,{4}1/5,
{8}2/6,4,2/6,8,2/6,1/5,{4}8/4,
{8}7/3,6h/5h,7/3,1h/8h,7/3-8[8:1],8/4,{4}6h,
{8}3/7,2h/1h,3/7,5h/4h,3/7-4[8:1],4/8,{4}2h,
{8}4h/1h,5h/2h,8h/3h,7pp7[4:1],8h/1h,2h/7<5[8:1],{4}4h,
{8}2h,3h/7h,4h/6h,2qq2[4:1],1h/8h,7h/2>4[8:1],{4}5h,
{8}6qq6[4:1],6h,2qq2[4:1],2h,,6h,{4}4h,
{8}3pp3[4:1],3h,7pp7[4:1],7h,,,3h,4h,
5h/7h,8h,4h/2h,1h,{16}3h[4:1],,,8h,{8}7h,7h/5h,
4h/2h,1h,7h[4:1]/5h,6h,{16}8h[4:1],,,6h,{8}5h,2h/4h,
7h/5h,4h,3h[4:1]/8h,1h,{16}7h[4:1],,,1h,{8}2h,6h/8h,
2h/4h,4h,8h/6h,8h,{16}5h[4:1],,,1h,{8}2h,4h/3h,
5h/6h,8h,6h/2h,4h/3h,{16}1h[4:1],,,7h,{8}6h,4h/3h,
6h/2h,8h,6h/2h,4h,{4}6h/2h,{8}7h/8h,6h/5h,
3h/4h,1h,3h/7h,5h/6h,{16}8h[4:1],,,2h,{8}3h,5h,
{4}6-2[8:1],3w7[8:1],{2}3b,
E
