&title=A Man In The Mirror
&artist=orangentle
&first=-0.584
&lv_5=15
&des=TanaT
&inote_5=(180){4},{16},,,,,,,,4,5,4,5,
{8}3bh[4:1],,,3h[4:1],,,{4}3h[4:1],
{8},3h[4:1],,,{4}4/2,4/2,
{8}6bxh[4:1],,,6h[4:1],,,{4}6h[4:1],
{8},6h[4:1],,,{4}5/7,5/7,
{8}4/6h[8:7],4,4,4,4,4,4,1b,
,2,{4}2,{16}1,,,2,,,{8}3,
6/4h[8:7],6,6,6,6,6,6,7b,
,8b-3b[8:1],{4}8b,{2}4bh[2:1],
{4}1b,{16}2,1,2,1,3,8,3,8,4,7,4,7,
{4}6b/5b,{16}8,7,8,7,1,6,1,6,2,5,2,5,
{4}4b/3b,{16}1,8,1,8,2,7,2,7,3,6,3,6,
4b,5b,,4b,,4b,,4b-8b[8:1],,,{8}5bh[16:1],5bh[16:1],5bh[16:1],
{4}1b,{16}3,4,3,4,3,4,{8}2,{16}6,5,{8}7,
{16},4h[8:3],{8}5,{16},,,,,,5,4,6,3,7,2,8,1h[8:1],
,7,,,2,8,{8}1,2,{16}6,3,{8}5h[4:1],
{16},,,,3,5,3,5,2,6,2,6,1,7,1,7,
8b>3b[8:1],,,7,,,{8}6,{16}3x,5,{8}4x,{16}5,4,{8}6bh[8:3],
{24},,,,,,4,5,4,5,4,5,4,5,4,5,4,5,4,5,4,5,{12}4,
{16}6,,,5,,,{8}3,6,{16}3,5,4,5,{8}3,
{16},,,,6,5,6,5,7,4,7,4,{4}8b,
{16}3h[16:7],4,,4,,4,,4,,3/4,,4/3,,3/4,,,6h[16:7],
5,,5,,5,,5,,,{8}6bx/5bx,5bx/6bx,6bx/5bx,
{16}3h[16:7],4,,4,,4,,4,,2/5,,5/2,,2/5,,,6h[16:7],
5,,5,,5,,5,,,{8}7bx/4bx,4bx/7bx,7bx/4bx,
{4}6bh[4:1],{8}3,{16}5,4,{8}5,3,2,1,
{4}7h[4:1],{8}2,{16}8,1,{8}8,7,6,5,
{4}3h[4:1],{8}5,{16}3,4,{4}3,2-5[8:1],
{2}6,{8}6,5,4,3,
5/2,{16}3,4,{8}3,5bh[4:1]/2bh[4:1],,,{4}3,
{8}7/4,{16}6,5,{8}6,7bh[4:1]/4bh[4:1],{16},,,,,,5,4,
{4}5,{16}3,4,3,4,2,5,2,5,1,6,1,6,
{4}7b/8b,{24}8,7,8,7,8,7,8,7,8,7,8,7,8,7,8,7,{12}8,
{8}7bhx[1:1],,,,8,1,2,3,4h[4:1],,,6,5,,4,,{16}2,4,,3,{16}6,5,6,5,{12}8h[12:1],5h[12:1],6h[12:1],1h[12:1],4h[12:1],3h[12:1],{16}8b,,1,7,1,7,1,7,2,6,2,6,3,5,3,5,4b,,,,3,5,3,5,{8}3,4,5,6,{16}3,4,3,,6,5,6,,3,4,3,4,2,4,2,4,1,8,1,8,{24}1x,2x,3x,{16}8,1,{24}8x,7x,6x,{16}1,8,{24}1x,2x,3x,{16}8,1,8bhx[8:1],,,,{24}1,8,1,8,1,8,1,8,1,8,1,8,1,8,1,8,1,8,
{8}1bhx[1:2],,,,{4},,7,7,7,7,7,7,7,{16}7,,7,5,6,,2,4,3,,7,5,6,,2,4,3,4,3,4,3bh[2:1],,,,{4},,{16},,6,5,6bh[2:1],,,,{4},,{16},,3,4,3bh[4:1],,,,,,,,6bh[4:1]/5bh[4:1],,,,,,,,3,,7,5,6,,2,4,3,,7,5,6,4,5,3,4h[16:3],,,,3,4,3,4,2,,,,6,5,6,5,7h[4:1],,,,,,4,5,4,,,6,,,5,,4-8[8:1],,,,,,3,,2h[16:3],,,1h[16:3],,,8h[16:2],,7h[4:1],,,,,,4,7,5,6,4,7,3,8,2,1,{16}2b,1,2,1,{16}3,8,3,8,4,7,4,7,5,6,5,6,4,5,4,5,{24}4b,3,2,{16}5,4,{24}5b,6,7,{16}4,5,{24}4b,3,2,{16}5,4,6b,5,6,5,7,4,7,4,8,3,8,3,8,3,1,2,1b,,3,4,2,5,1,6,8b,,6,5,7,4,8,3,1b,
,,,,,,,,,,,,,,,3h[2:1],,,5,,,5,,6h[2:1],,,4,,,4,,3h[4:1],,,,,,5,5,5,,,6h[16:3],,,4,,3<6[8:1],,,,,,,,8h[2:1],,,,,,4,4,4,,,7,,,6,,5h[4:1],,,,,,3,4,3h[2:1],,,,,,6,6,6<1[8:1],,,3,,,4,,5h[4:1],,,,,,6,5,6,,,4,,,3,,{8}5bh[1:1]/2,2,2,2,2,2,2,2,1b-4[8:1]*-3<4[8:1],,1b-6[8:1]*-7<6[8:1],,1bw5b[8:1],,1b,,
{16}3,4,2,5,1,6,8,7,5,6,4,7,3,8,2,1b,,,25,,3,4,3,4,2b,,54,,6,5,6,5,7b,,,,2,5,{24}3,4,3,{16}5,2,{24}4,3,4,{16}2,5,1b>4[16:1],,,,,,6,5x,6,5x,7,4,7,4,8,3,8,3,1b,,2,1,3,8,2,1,2,1,2,1,3,8,3,8,2b,,6,5,6,5,7,4,7,4,7,4,6,5,6,,{24}3,4,3,4,3,4,2b,{16},{24}7,6,5,4b,,{16},2bh[8:2],,,,1b,,,,{18}2x,1x,2x,1x,2x,1x,2x,1x,2x,1x,2x,{144}1x,,{16},,3,4,1,8,1,8,5,6,5,6,4,7,4,7,3,8,3,8,2b,1,2,1,4,5,4,5,8b,7,8,7,1,6,1,6,2b,,{24}2,3,4,5,6b,,,,,{16}7b,,{24}7,6,5,4,3b,,,,,{16}1b/2b,,2,1,3,8,3,8,4,7,4,7,5,6,5,6,4b,,3,4,2,5,1,6,8,7,2,1,3,8,4,7,5,6,3,4,2,5,1,6,8,7,1,6,2,5,3x,4x,{24}3bx,4,3,4,3,4,3,4,3,4,3,4,2bx,4,2,4,2,4,2,4,2,4,2,4,1bx,4,1,4,1,4,1,4,1,4,1,4,2bx,1x,2x,6bx,5x,6x,2bx,1x,2x,6bx,5x,6x,{16}3h[16:7],4,,4,,4,,4,,3/4,,4/3,,3/4,,6,6h[16:7],
5,,5,,5,,5,4,,{8}6b/5b,5b/6b,{16}6b/5b,,
{16}3h[16:7],4,,4,,4,,4,,2/5,,5/2,,2/5,,6,6h[16:7],
5,,5,,5,,5,5,,{8}7b/4b,4b/7b,7b/4b,2b/5b,{24}3,4,3,4,3,4,3,4,3,5b,2,5,2,5,2,5,2,5,2,5,,
3,4x,3,5,4x,5,3,4x,3,5,4x,5,
2,3x,2x,6,5x,6x,2,3x,2x,6,5x,6x,
{16}3h[16:7],4,,4,,4,,4,,2/5,,5/2,,2/5,,6,6h[16:7],
5,,5,,5,,5,5,,{8}7b/4b,4b/7b,7b/4b,2b/5b,,{32}1b/8b,27,36,4/5<4[16:1],
E
