&title=罪過の聖堂
&artist=OSTER project
&first=1
&des=SFC5の罪人
&lv_5=14(变)
&lv_6=14
&inote_5=
(90)
{12}4,8,3,
{16}1h[384:96],,,,
{384}2,
(80)
{4},
(70)
{20}2,8,3,7,4,
(90)
{12}5,1,6,8h[384:96],,,
{384}7,
(80)
{4},
(75)
{20}6,4,7,3,8,
{24}2,,6,
(90)
{24},3,,5h[384:91],,,
(100)
{8},4,,
{20}3,5,2,6,1,
(110)
{24}7h[384:380],,,,,,,,,
{8}1,2,
(100)
{16},3,,,,
(80)
{64},
{8}4,,
(50)
{72},
(80)
{32}48,,,,,
(100)
{32}37,
{32},,,,,26,,,,,
{64},15,,,
{32},,
{32},
(120)
{16}26,,,37,
(130)
{16},,
{32}8h[16:5]/4,,,,,3,,,,,
(140)
{32}2,,,,,
{64},
(150)
{8}1h[8:4]/8,7,6,5,
(80)
{8}4,,
{32}6,5,7h[32:7],
{64},4,,,3,,,,,,
{64}3,4,5,,,,,,,,,,,,,,
{8},,,,,,
(155)
{8}4b/8b,2b/6b,1,5,3,7,1,6,4,7,2,5,3,
{16}2,1,3,8,4,7,5,6,7,6,8,6,
{16}1,5,2,4,3,2,3,1,3,8,4,7,
{8}5h[8:3],7,8,1h[8:3],5,4,2h[8:3],7,6,5h[8:3],1,2,3h[8:3],6,6,7h[8:3],4,3,1h[8:3],7,6,
(110)
{8}5b,,,
{16}7,8,6,1,5,2,4,3,1,2,8,3,
(100)
{8}7b,,
(80)
{8},,
(70)
{8},,
(60)
{20}5,3,6,4,7,
{24}5,,
(80)
{20}6,4,5,
(90)
{20}3,4,
{24}2,,,
{20}5,3,6,4,7,
(100)
{24}5,,
{24}8,,12,,,47,
{64},
{16},4,2h[16:3],5,,3,
{64},
{96},
{32},5,,7h[32:6],,4,,,,6,,,,
{64},
{32}47,,,
{64},
{32}1,,
{64},
(80)
{16}7,2,8,3,1,
(70)
{32}3,5,4h[64:12],,,
{64}6,,,7,,,
(40)
{16}8,,
(80)
{32}3,4,2,,1h[16:1],,3,,6,5,7,,
(90)
{32}8h[16:1],
,6,,2,4,3,,1h[16:1],,3,,
(100)
{32}7,5,6,,8h[16:1],,6,,1,3,2,,
(120)
{32}7h[16:1],,5,,3,2,1,8,2,1,8,7,
{32}2,3,8,7,2,3,8,7,3,4,7,6,3,4,7,6,2,3,6,5,2,3,6,5,
(100)
{32}2,3,4,5,
(90)
{32}6,7,8,1,
(60)
{32}2,3,4,5,6b/1b,,,,
(140)
{16}46,,37,,8b/2b,,16,,25,,3h[4:1]/4b,,5,5,5,,
{16}26,,17,,28,,7h[4:1]/3b,,4,4,4,,38,,16,,25,,8b/3b,,47,,16,,2b/5b,,,78,
{16},,1h[4:1]/6b,,7,7,7,,8h[4:1]/3b,,2,2,2,,6h[8:2]/1b,,2,,3,,4h[4:1]/6,,7,,8,,8h[4:1]/4b,,3,,2,,1h[4:1]/5,,6,,7,,8h[4:1]/4b,,6,,2,,
(100)
{8}3h[4:1]/7b,5,1,
(90)
{8}7b,,,
(80)
{8}4,3h[8:5],,8,,,6,4,5,6h[2:1],,1,,
{16}1,8,2,7,3h[2:1],,,,7,,
{8},4,3,2h[8:11],,,8,7,6,5,4,3,1,8,7,2b/6b,,4b/8b,,,,
{64}4,5,,,
{32},,,,,,
{64}5,4,,,,,,,
{8},,,
(100)
{8}1,8,1,8,1,8,
(110)
{8}1,8,1,
(120)
{8}8,1,8,
(100)
{16}1,2,3,4,
(110)
{16}5,6,7,
(120)
{16}8,1,2,
(130)
{16}3,4,
(150)
{16}5,,1,5,1,,
(140)
{16}6,,2,,7,,
(110)
{16}48,,37,,26,
(80)
{16},15,,
(60)
{16}26,,37,,
(90)
{32}1b/8b,27,36,45,,45,,,
(120)
{16}4h[8:3]/5h[8:3],,,
{32},
(140)
{16},,,,4,6,3,8,
(150)
{32}1b/2b,38,47,56,,,56,,5h[4:1]/6h[4:1],,,,,,,,
(155)
{16},,,,5,3,6,1,
(165)
{32}7b/8b,16,25,34,,,34,,3h[8:1]/4h[8:1],,,,
{8},2b,8,3,7,
{32}6h[2:1]/4b,3,2,1,
{16},1,1,,
{8},4b,3,7,1,1h[4:1]/5b,,
{32}6,7,8,1,2,3,4,5,
{32}6/2,,,,,,
{32}3,,,,,,5,,,,1/7,6,5,4,,,1,,,,,,7,,,,8/2,3,4,5,8,,,,1,,,,
{8}7,1/5,
{16},7,8,6,1,5,2,,,,78,,,,
{32}8h[2:1]/4b,3,2,1,
{16},1,1,,,,,,,,4,6,3,7,
{32}2h[4:1]/8b,7,6,5,,,5,,
{8}5,,2,8,3,7,
{32}6h[2:1]/4b,3,2,1,,,
{16}1,1,,,,2b,,,5,3,6,2,7,
{32}1h[4:1]/7b,6,5,4,,,
{16}4,4,,,,
{8}3b/8b,4,5,6,
{32}1b/8b,27,36,45,,,,,45,,,,,,,,
{8}16,5,4,3,1h[8:1]/5b,4,
{32}14,25,36,47,58,,
{16},5b/8b,,
{8},12,,
{32}2b/1h[2:1],3,4,5,
{8},,,2,1,3,8,
{32}4h[2:1]/8b,7,6,5,
{8},,,5,,,,1b/8b,,
{12}25,3,4,16,7,8,36,4,5,
{32}1b/2b,38,47,56,,,,,,,,,,,,,7b/8b,16,25,34,,,,,,,,,,,,,
{16}3b/6b,,,,
(140)
{4}5h[32:6]/7h[32:6],
(120)
{32}6h[32:4]/8h[32:4],,,,,,1h[32:4]/8h[32:4],,,,,,2h[32:6]/8h[32:6],,,,,,,,4b>5[8:19]/8h[8:21],
&inote_6=(90)
{12}4,8,3,
{16}1h[384:96],,,,
{384}2,
(80)
{4},
(70)
{20}2,8,3,7,4,
(90)
{12}5,1,6,8h[384:96],,,
{384}7,
(80)
{4},
(75)
{20}6,4,7,3,8,
{24}2,,6,
(90)
{24},3,,5h[384:91],,,
(100)
{8},4,,
{20}3,5,2,6,1,
(110)
{24}7h[384:380],,,,,,,,,
{8}1,2,
(100)
{16},3,,,,
(80)
{64},
{8}4,,
(50)
{72},
(80)
{32}48,,,,,
(100)
{32}37,
{32},,,,,26,,,,,
{64},15,,,
{32},,
{32},
(120)
{16}26,,,37,
(130)
{16},,
{32}8h[16:5]/4,,,,,3,,,,,
(140)
{32}2,,,,,
{64},
(150)
{8}1h[8:4]/8,7,6,5,
(80)
{8}4,,
{32}6,5,7h[32:7],
{64},4,,,3,,,,,,
{64}3,4,5,,,,,,,,,,,,,,
{8},,,,,,
(155)
{8}4b/8b,2b/6b,1,5,3,7,1,6,4,7,2,5,3,
{16}2,1,3,8,4,7,5,6,7,6,8,6,
{16}1,5,2,4,3,2,3,1,3,8,4,7,
{8}5h[8:3],7,8,1h[8:3],5,4,2h[8:3],7,6,5h[8:3],1,2,3h[8:3],6,6,7h[8:3],4,3,1h[8:3],7,6,
(110)
{8}5b,,,
{16}7,8,6,1,5,2,4,3,1,2,8,3,
(100)
{8}7b,,
(80)
{8},,
(70)
{8},,
(60)
{20}5,3,6,4,7,
{24}5,,
(80)
{20}6,4,5,
(90)
{20}3,4,
{24}2,,,
{20}5,3,6,4,7,
(100)
{24}5,,
{24}8,,12,,,47,
{64},
{16},4,2h[16:3],5,,3,
{64},
{96},
{32},5,,7h[32:6],,4,,,,6,,,,
{64},
{32}47,,,
{64},
{32}1,,
{64},
(80)
{16}7,2,8,3,1,
(70)
{32}3,5,4h[64:12],,,
{64}6,,,7,,,
(40)
{16}8,,
(80)
{32}3,4,2,,1h[16:1],,3,,6,5,7,,
(90)
{32}8h[16:1],
,6,,2,4,3,,1h[16:1],,3,,
(100)
{32}7,5,6,,8h[16:1],,6,,1,3,2,,
(120)
{32}7h[16:1],,5,,3,2,1,8,2,1,8,7,
{32}2,3,8,7,2,3,8,7,3,4,7,6,3,4,7,6,2,3,6,5,2,3,6,5,
(100)
{32}2,3,4,5,
(90)
{32}6,7,8,1,
(60)
{32}2,3,4,5,6b/1b,,,,
(140)
{16}46,,37,,8b/2b,,16,,25,,3h[4:1]/4b,,5,5,5,,
{16}26,,17,,28,,7h[4:1]/3b,,4,4,4,,38,,16,,25,,8b/3b,,47,,16,,2b/5b,,,78,
{16},,1h[4:1]/6b,,7,7,7,,8h[4:1]/3b,,2,2,2,,6h[8:2]/1b,,2,,3,,4h[4:1]/6,,7,,8,,8h[4:1]/4b,,3,,2,,1h[4:1]/5,,6,,7,,8h[4:1]/4b,,6,,2,,
(100)
{8}3h[4:1]/7b,5,1,
(90)
{8}7b,,,
(80)
{8}4,3h[8:5],,8,,,6,4,5,6h[2:1],,1,,
{16}1,8,2,7,3h[2:1],,,,7,,
{8},4,3,2h[8:11],,,8,7,6,5,4,3,1,8,7,2b/6b,,4b/8b,,,,
{64}4,5,,,
{32},,,,,,
{64}5,4,,,,,,,
{8},,,
(100)
{8}1,8,1,8,1,8,
(110)
{8}1,8,1,
(120)
{8}8,1,8,
(100)
{16}1,2,3,4,
(110)
{16}5,6,7,
(120)
{16}8,1,2,
(130)
{16}3,4,
(150)
{16}5,,1,5,1,,
(140)
{16}6,,2,,7,,
(110)
{16}48,,37,,26,
(80)
{16},15,,
(60)
{16}26,,37,,
(90)
{32}1b/8b,27,36,45,,45,,,
(120)
{16}4h[8:3]/5h[8:3],,,
{32},
(140)
{16},,,,4,6,3,8,
(150)
{32}1b/2b,38,47,56,,,56,,5h[4:1]/6h[4:1],,,,,,,,
(155)
{16},,,,5,3,6,1,
(165)
{32}7b/8b,16,25,34,,,34,,3h[8:1]/4h[8:1],,,,
{8},2b,8,3,7,
{32}6h[2:1]/4b,3,2,1,
{16},1,1,,
{8},4b,3,7,1,1h[4:1]/5b,,
{32}6,7,8,1,2,3,4,5,
{32}6/2,,,,,,
{32}3,,,,,,5,,,,1/7,6,5,4,,,1,,,,,,7,,,,8/2,3,4,5,8,,,,1,,,,
{8}7,1/5,
{16},7,8,6,1,5,2,,,,78,,,,
{32}8h[2:1]/4b,3,2,1,
{16},1,1,,,,,,,,4,6,3,7,
{32}2h[4:1]/8b,7,6,5,,,5,,
{8}5,,2,8,3,7,
{32}6h[2:1]/4b,3,2,1,,,
{16}1,1,,,,2b,,,5,3,6,2,7,
{32}1h[4:1]/7b,6,5,4,,,
{16}4,4,,,,
{8}3b/8b,4,5,6,
{32}1b/8b,27,36,45,,,,,45,,,,,,,,
{8}16,5,4,3,1h[8:1]/5b,4,
{32}14,25,36,47,58,,
{16},5b/8b,,
{8},12,,
{32}2b/1h[2:1],3,4,5,
{8},,,2,1,3,8,
{32}4h[2:1]/8b,7,6,5,
{8},,,5,,,,1b/8b,,
{12}25,3,4,16,7,8,36,4,5,
{32}1b/2b,38,47,56,,,,,,,,,,,,,7b/8b,16,25,34,,,,,,,,,,,,,
{16}3b/6b,,,,
(140)
{4}5h[32:6]/7h[32:6],
(120)
{32}6h[32:4]/8h[32:4],,,,,,1h[32:4]/8h[32:4],,,,,,2h[32:6]/8h[32:6],,,,,,,,4b>5[8:19]/8h[8:21],
